Share with Your Friends

Download Interstellar 2014 1080p BluRay x264 DTS-RARBG
iMDB

Download Interstellar 2014 1080p BluRay x264 DTS-RARBG

Plot

A team of explorers travel through a wormhole in an attempt to ensure humanity’s survival.

Information

General
Format : Matroska
Format version : Version 4 / Version 2
File size : 15.1 GiB
Duration : 2h 49mn
Overall bit rate : 12.8 Mbps

Video
ID : 1
Format : AVC
Format/Info : Advanced Video Codec
Format profile : High@L4.1
Format settings, CABAC : Yes
Format settings, ReFrames : 4 frames
Codec ID : V_MPEG4/ISO/AVC
Duration : 2h 49mn
Bit rate : 11.5 Mbps
Width : 1 920 pixels
Height : 1 080 pixels
Display aspect ratio : 16:9
Frame rate mode : Constant
Frame rate : 23.976 fps
Color space : YUV
Chroma subsampling : 4:2:0
Bit depth : 8 bits
Scan type : Progressive
Bits/(Pixel*Frame) : 0.231
Stream size : 13.1 GiB (86%)

Audio
ID : 2
Format : DTS
Format/Info : Digital Theater Systems
Mode : 16
Format settings, Endianness : Big
Codec ID : A_DTS
Duration : 2h 49mn
Bit rate mode : Constant
Bit rate : 1 509 Kbps
Channel(s) : 6 channels
Channel positions : Front: L C R, Side: L R, LFE
Sampling rate : 48.0 KHz
Bit depth : 24 bits
Compression mode : Lossy
Stream size : 1.78 GiB (12%)
Language : English
Default : Yes
Forced : No

Download Interstellar 2014 1080p BluRay x264 DTS-RARBG

Download Interstellar 2014 1080p BluRay x264 DTS-RARBG

Download Interstellar 2014 1080p BluRay x264 DTS-RARBG

Download Interstellar 2014 1080p BluRay x264 DTS-RARBG

24Uploading (Recommended)

Click Here to Download

Click Here to Download


Click Here to Download


Click Here to Download


Click Here to Download


Click Here to Download


Click Here to Download


Click Here to Download


Click Here to Download


Click Here to Download


Click Here to Download


Click Here to Download


Click Here to Download


Click Here to Download


Click Here to Download


Click Here to Download


Click Here to Download


Click Here to Download

Uploaded

Click Here to Download

Click Here to Download


Click Here to Download


Click Here to Download


Click Here to Download


Click Here to Download


Click Here to Download


Click Here to Download


Click Here to Download


Click Here to Download


Click Here to Download


Click Here to Download


Click Here to Download


Click Here to Download


Click Here to Download


Click Here to Download


Click Here to Download


Click Here to Download

RapidGator

Click Here to Download

Click Here to Download


Click Here to Download


Click Here to Download


Click Here to Download


Click Here to Download


Click Here to Download


Click Here to Download


Click Here to Download


Click Here to Download


Click Here to Download


Click Here to Download


Click Here to Download


Click Here to Download


Click Here to Download


Click Here to Download


Click Here to Download


Click Here to Download
Share with Your Friends
Written by ED12