Share with Your Friends

Download Interstellar 2014 BRRip x264-RARBG
iMDB

Download Interstellar 2014 BRRip x264-RARBG

Plot

A team of explorers travel through a wormhole in an attempt to ensure humanity’s survival.

Information

General
Format : MPEG-4
Format profile : Base Media
Codec ID : isom
File size : 1.45 GiB
Duration : 2h 49mn
Overall bit rate : 1 232 Kbps

Video
ID : 1
Format : AVC
Format/Info : Advanced Video Codec
Format profile : High@L3.1
Format settings, CABAC : Yes
Format settings, ReFrames : 5 frames
Codec ID : avc1
Codec ID/Info : Advanced Video Coding
Duration : 2h 49mn
Bit rate : 1 100 Kbps
Width : 720 pixels
Height : 400 pixels
Display aspect ratio : 16:9
Frame rate mode : Constant
Frame rate : 23.976 fps
Color space : YUV
Chroma subsampling : 4:2:0
Bit depth : 8 bits
Scan type : Progressive
Bits/(Pixel*Frame) : 0.159
Stream size : 1.30 GiB (89%)

Audio
ID : 2
Format : AAC
Format/Info : Advanced Audio Codec
Format profile : LC
Codec ID : 40
Duration : 2h 49mn
Duration_LastFrame : 43ms
Bit rate mode : Constant
Bit rate : 128 Kbps
Channel(s) : 2 channels
Channel(s)_Original : 6 channels
Channel positions : Front: L C R, Side: L R, LFE
Sampling rate : 48.0 KHz
Compression mode : Lossy
Stream size : 155 MiB (10%)

Download Interstellar 2014 BRRip x264-RARBG

Download Interstellar 2014 BRRip x264-RARBG

Download Interstellar 2014 BRRip x264-RARBG

Download Interstellar 2014 BRRip x264-RARBG

Download Interstellar 2014 BRRip x264-RARBG

200MB Links

ZippyShare

Click Here to Download

Click Here to Download


Click Here to Download


Click Here to Download


Click Here to Download


Click Here to Download


Click Here to Download


Click Here to Download

Single Links

24Uploading (Recommended)

Click Here to Download

HugeFile

Click Here to Download

TurboBit

Click Here to Download

Uploaded

Click Here to Download

RapidGator

Click Here to Download
Share with Your Friends
Written by ED12