Share with Your Friends

Download Into The Storm 2014 720p WEB-DL XviD MP3-RARBG
iMDB

Download Into The Storm 2014 720p WEB-DL XviD MP3-RARBG

Plot

Storm trackers, thrill-seekers, and everyday townspeople document an unprecedented onslaught of tornadoes touching down in the town of Silverton.

Information

General
Format : AVI
Format/Info : Audio Video Interleave
Format profile : OpenDML
File size : 2.49 GiB
Duration : 1h 29mn
Overall bit rate : 4 001 Kbps

Video
ID : 0
Format : MPEG-4 Visual
Format profile : Simple@L5
Format settings, BVOP : No
Format settings, QPel : No
Format settings, GMC : No warppoints
Format settings, Matrix : Default (H.263)
Codec ID : XVID
Codec ID/Hint : XviD
Duration : 1h 29mn
Bit rate : 3 794 Kbps
Width : 1 280 pixels
Height : 718 pixels
Display aspect ratio : 16:9
Frame rate : 23.976 fps
Color space : YUV
Chroma subsampling : 4:2:0
Bit depth : 8 bits
Scan type : Progressive
Compression mode : Lossy
Bits/(Pixel*Frame) : 0.172
Stream size : 2.36 GiB (95%)
Writing library : Lavc56.1.100

Audio
ID : 1
Format : MPEG Audio
Format version : Version 1
Format profile : Layer 3
Mode : Joint stereo
Mode extension : MS Stereo
Codec ID : 55
Codec ID/Hint : MP3
Duration : 1h 29mn
Bit rate mode : Constant
Bit rate : 192 Kbps
Channel(s) : 2 channels
Sampling rate : 48.0 KHz
Compression mode : Lossy
Stream size : 123 MiB (5%)
Alignment : Aligned on interleaves
Interleave, duration : 24 ms (0.58 video frame)
Interleave, preload duration : 504 ms
Writing library : LAME3.99.5

Download Into The Storm 2014 720p WEB-DL XviD MP3-RARBG

Download Into The Storm 2014 720p WEB-DL XviD MP3-RARBG

Download Into The Storm 2014 720p WEB-DL XviD MP3-RARBG

Download Into The Storm 2014 720p WEB-DL XviD MP3-RARBG

24Uploading (Recommended)

Click Here to Download

Click Here to Download


Click Here to Download
Share with Your Friends
Written by ED12