Share with Your Friends

Download Invasion of the Undead (2015) 480p WEB-DL 200MB
iMDB

Download Invasion of the Undead (2015) 480p WEB-DL 200MB

Plot

An unemployed recent college grad hires two freelance paranormal exterminators to combat a monster infestation in her new home.

Information

General
Format : MPEG-4
Format profile : Base Media / Version 2
Codec ID : mp42
File size : 214 MiB
Duration : 1h 20mn
Overall bit rate mode : Variable
Overall bit rate : 371 Kbps

Video
ID : 1
Format : AVC
Format/Info : Advanced Video Codec
Format profile : Baseline@L2.1
Format settings, CABAC : No
Format settings, ReFrames : 1 frame
Codec ID : avc1
Codec ID/Info : Advanced Video Coding
Duration : 1h 20mn
Bit rate : 272 Kbps
Maximum bit rate : 1 167 Kbps
Width : 576 pixels
Height : 324 pixels
Display aspect ratio : 16:9
Frame rate mode : Constant
Frame rate : 24.000 fps
Color space : YUV
Chroma subsampling : 4:2:0
Bit depth : 8 bits
Scan type : Progressive
Bits/(Pixel*Frame) : 0.061
Stream size : 157 MiB (73%)
Tagged date : UTC 2015-03-16 02:09:21

Audio
ID : 2
Format : AAC
Format/Info : Advanced Audio Codec
Format profile : LC
Codec ID : 40
Duration : 1h 20mn
Bit rate mode : Variable
Bit rate : 96.0 Kbps
Maximum bit rate : 104 Kbps
Channel(s) : 2 channels
Channel positions : Front: L R
Sampling rate : 44.1 KHz
Compression mode : Lossy
Stream size : 55.5 MiB (26%)

Download Invasion of the Undead (2015) 480p WEB-DL 200MB

Download Invasion of the Undead (2015) 480p WEB-DL 200MB

Download Invasion of the Undead (2015) 480p WEB-DL 200MB

Download Invasion of the Undead (2015) 480p WEB-DL 200MB

Download Invasion of the Undead (2015) 480p WEB-DL 200MB

24Uploading (Recommended)

Click Here to Download

HugeFile

Click Here to Download

Uploaded

Click Here to Download

RapidGator

Click Here to Download
Share with Your Friends
Written by ED12