Share with Your Friends


Click Here to Download

Download Iron Man and Captain America Heroes United 2014 1080p WEB-DL DD5.1 H264-RARBG

Plot

Iron Man and Captain America battle to keep the Red Skull and his triggerman, Taskmaster, from unleashing an army of Hydra Brutes on the world! Enjoy surpassing twists and a special appearance by one of your favorite Marvel Super Heroes in this action packed feature featuring the voices of Adrian Pasdar and Roger Craig reprising their roles as Iron Man and Captain America, and Clancy Brown as the villainous Taskmaster.

Information

Video
ID : 1
Format : AVC
Format/Info : Advanced Video Codec
Format profile : High@L4.0
Format settings, CABAC : Yes
Format settings, ReFrames : 4 frames
Codec ID : V_MPEG4/ISO/AVC
Duration : 1h 10mn
Bit rate : 4 976 Kbps
Width : 1 916 pixels
Height : 1 076 pixels
Display aspect ratio : 16:9
Frame rate mode : Constant
Frame rate : 23.976 fps
Color space : YUV
Chroma subsampling : 4:2:0
Bit depth : 8 bits
Scan type : Progressive
Bits/(Pixel*Frame) : 0.101
Stream size : 2.47 GiB (91%)
Title : Iron.Man.and.Captain.America.Heroes.United.2014.1080p.WEB >>
DL.DD5.1.H264-RARBG
Language : English
Default : Yes
Forced : No
Color primaries : BT.709
Transfer characteristics : BT.709
Matrix coefficients : BT.709

Audio
ID : 2
Format : AC-3
Format/Info : Audio Coding 3
Mode extension : CM (complete main)
Format settings, Endianness : Big
Codec ID : A_AC3
Duration : 1h 10mn
Bit rate mode : Constant
Bit rate : 384 Kbps
Channel(s) : 6 channels
Channel positions : Front: L C R, Side: L R, LFE
Sampling rate : 48.0 KHz
Bit depth : 16 bits
Compression mode : Lossy
Stream size : 195 MiB (7%)
Title : Iron.Man.and.Captain.America.Heroes.United.2014.1080p.WEB >>
DL.DD5.1.H264-RARBG
Language : English
Default : Yes
Forced : No

Download Iron Man and Captain America Heroes United 2014 1080p WEB-DL DD5.1 H264-RARBG

PutLocker (FireDrive)

Click Here to Download

Uploaded.to

Click Here to Download

fileom

Click Here to Download
Share with Your Friends
Written by ED12