Share with Your Friends


Click Here to Download

Download Iron Man and Captain America Heroes United 2014 WEB-DL XviD AC3-RARBG

Plot

Iron Man and Captain America battle to keep the Red Skull and his triggerman, Taskmaster, from unleashing an army of Hydra Brutes on the world! Enjoy surpassing twists and a special appearance by one of your favorite Marvel Super Heroes in this action packed feature featuring the voices of Adrian Pasdar and Roger Craig reprising their roles as Iron Man and Captain America, and Clancy Brown as the villainous Taskmaster.

Information

Format : AVI
Format/Info : Audio Video Interleave
File size : 1 011 MiB
Duration : 1h 10mn
Overall bit rate : 1 993 Kbps
Movie name : RARBG.COM – Iron.Man.and.Captain.America.Heroes.United.20 >>
4.WEB-DL.XviD.AC3-RARBG
Writing library : VirtualDub build 35491/release
Comment : RARBG.COM – Iron.Man.and.Captain.America.Heroes.United.20 >>
4.WEB-DL.XviD.AC3-RARBG

Video
ID : 0
Format : MPEG-4 Visual
Format profile : Simple@L5
Format settings, BVOP : No
Format settings, QPel : No
Format settings, GMC : No warppoints
Format settings, Matrix : Default (H.263)
Codec ID : XVID
Codec ID/Hint : XviD
Duration : 1h 10mn
Bit rate : 1 599 Kbps
Width : 720 pixels
Height : 400 pixels
Display aspect ratio : 16:9
Frame rate : 23.976 fps
Color space : YUV
Chroma subsampling : 4:2:0
Bit depth : 8 bits
Scan type : Progressive
Compression mode : Lossy
Bits/(Pixel*Frame) : 0.232
Stream size : 812 MiB (80%)
Writing library : Lavc55.61.100

Audio
ID : 1
Format : AC-3
Format/Info : Audio Coding 3
Mode extension : CM (complete main)
Format settings, Endianness : Big
Codec ID : 2000
Duration : 1h 10mn
Bit rate mode : Constant
Bit rate : 384 Kbps
Channel(s) : 6 channels
Channel positions : Front: L C R, Side: L R, LFE
Sampling rate : 48.0 KHz
Bit depth : 16 bits
Compression mode : Lossy
Stream size : 195 MiB (19%)
Alignment : Aligned on interleaves
Interleave, duration : 42 ms (1.00 video frame)
Interleave, preload duration : 512 ms

Download Iron Man and Captain America Heroes United 2014 WEB-DL XviD AC3-RARBG

go4up

Click Here to Download

PutLocker (FireDrive)

Click Here to Download

fileom

Click Here to Download

Uploaded.to

Click Here to Download

RapidGator

Click Here to Download
Share with Your Friends
Written by ED12