Share with Your Friends

Download JLA Adventures Trapped in Time 2014 DVDRIP x264 AC3-TiTAN
iMDB

Download JLA Adventures Trapped in Time 2014 DVDRIP x264 AC3-TiTAN

Plot

The Legion of Doom are attempting to use space satellites to freeze the Earth’s oceans, creating more land mass at the coastal regions for which they own. The JLA quickly arrive and the two teams engage in a classic battle of wills. This clash leads to Lex Luthor becoming trapped in a glacier of ice. In the 31st century Legion of Superheroes trainees; Dawnstar and Karate Kid are tasked with minding the Legion’s museum. Their tour leads them to Lex Luthor’s memorial; his body still encased in a large chuck of ice discovered in the 29th century. Karate Kid Inadvertently frees Luthor who secretly explores the museum himself, and soon uncovers the shrine to his greatest nemesis Superman. There he learns of the Kent’s involvement in Kal-El’s discovery. Luthor following the voices of Dawnstar and Karate Kid takes possession of an hourglass which holds the Time Trapper within. Whoever holds the hourglass controls this entity who is the master of time. Luthor returns to the 21st century, but …

Information

General
Format : Matroska
Format version : Version 2
File size : 533 MiB
Duration : 52mn 37s
Overall bit rate mode : Variable
Overall bit rate : 1 416 Kbps
Encoded date : UTC 2014-05-16 00:06:11
Writing application : mkvmerge v6.9.1 (‘Blue Panther’) 32bit built on Apr 18 2014 >>
18:15:44
Writing library : libebml v1.3.0 + libmatroska v1.4.1

Video
ID : 1
Format : AVC
Format/Info : Advanced Video Codec
Format profile : High@L4.1
Format settings, CABAC : Yes
Format settings, ReFrames : 3 frames
Codec ID : V_MPEG4/ISO/AVC
Duration : 52mn 37s
Bit rate mode : Variable
Bit rate : 1 196 Kbps
Maximum bit rate : 40.0 Mbps
Width : 640 pixels
Height : 336 pixels
Display aspect ratio : 1.905
Frame rate mode : Constant
Frame rate : 23.976 fps
Color space : YUV
Chroma subsampling : 4:2:0
Bit depth : 8 bits
Scan type : Progressive
Bits/(Pixel*Frame) : 0.232
Stream size : 450 MiB (84%)
Writing library : x264 core 142 r2409 d6b4e63
Default : Yes
Forced : No
Color primaries : BT.709
Transfer characteristics : BT.709
Matrix coefficients : BT.709

Audio
ID : 2
Format : AC-3
Format/Info : Audio Coding 3
Mode extension : CM (complete main)
Format settings, Endianness : Big
Codec ID : A_AC3
Duration : 52mn 37s
Bit rate mode : Constant
Bit rate : 192 Kbps
Channel(s) : 2 channels
Channel positions : Front: L R
Sampling rate : 48.0 KHz
Bit depth : 16 bits
Compression mode : Lossy
Stream size : 72.3 MiB (14%)
Default : Yes
Forced : No

Download JLA Adventures Trapped in Time 2014 DVDRIP x264 AC3-TiTAN

Download JLA Adventures Trapped in Time 2014 DVDRIP x264 AC3-TiTAN

Download JLA Adventures Trapped in Time 2014 DVDRIP x264 AC3-TiTAN

Download JLA Adventures Trapped in Time 2014 DVDRIP x264 AC3-TiTAN

Download JLA Adventures Trapped in Time 2014 DVDRIP x264 AC3-TiTAN

MultiUpload

Click Here to Download

PutLocker (FireDrive)

Click Here to Download

Uploaded.to

Click Here to Download

RapidGator

Click Here to Download
Share with Your Friends
Written by ED12