Share with Your Friends

Download Looney Bugs Bunny Movie 1981 1080p WEB-DL DD2 0 H264-FGT

iMDB

Download Looney Bugs Bunny Movie 1981 1080p WEB-DL DD2 0 H264-FGT

Plot

Bugs Bunny hosts an award show featuring several classic Looney Toon shorts.
This is the second feature-length film containing classic Warner Brothers cartoons linked together by newly animated footage. It is divided into three parts, all of which are being shown in a theater as part of a film ceremony honoring the classic Looney Tunes characters. Part 1 involves Yosemite Sam’s pact with the Devil to exchange his place in Hell with Bugs Bunny, provided that Sam can lure Bugs into sin and then kill him. Part 2 is a parody of TV crime-fighting dramas as Bugs is selected by law-enforcement to find and apprehend gangster Rocky, who has kidnaped Tweety Bird for a ransom. Part 3 is an Academy Awards-like contest in which various classic cartoon shorts are showcased.
Information

General
Format : Matroska
File size : 1.63 GiB
Duration : 40mn 14s
Overall bit rate : 5 813 Kbps

Video
ID : 1
Format : AVC
Format/Info : Advanced Video Codec
Format profile : High L4.0
Format settings, CABAC : Yes
Format settings, ReFrames : 5 frames
Codec ID : V_MPEG4/ISO/AVC
Duration : 40mn 14s
Bit rate : 5 505 Kbps
Width : 1 480 pixels
Height : 1 080 pixels
Display aspect ratio : 1.370
Frame rate : 23.976 fps
Color space : YUV
Chroma subsampling : 4:2:0
Bit depth : 8 bits
Scan type : Progressive
Bits/(Pixel*Frame) : 0.144
Stream size : 1.55 GiB (95%)

Audio
ID : 2
Format : AC-3
Format/Info : Audio Coding 3
Mode extension : CM (complete main)
Codec ID : A_AC3
Duration : 40mn 14s
Bit rate mode : Constant
Bit rate : 192 Kbps
Channel(s) : 2 channels
Channel positions : Front: L R
Sampling rate : 48.0 KHz
Bit depth : 16 bits
Compression mode : Lossy
Stream size : 55.3 MiB (3%)
Language : English
Download Looney Bugs Bunny Movie 1981 1080p WEB-DL DD2 0 H264-FGT

Download Looney Bugs Bunny Movie 1981 1080p WEB-DL DD2 0 H264-FGT

HugeFile

Click Here to Download

Click Here to Download

Uploaded

Click Here to Download

Click Here to Download

RapidGator

Click Here to Download

Click Here to Download
Share with Your Friends
Written by ED12