Share with Your Friends

Download Machete Kills (2013) HDCAM Xvid 1.5GB
iMDB

Download Machete Kills (2013) HDCAM Xvid 1.5GB

Plot

The U.S. government recruits Machete to battle his way through Mexico in order to take down an arms dealer who looks to launch a weapon into space.

Information

Format : AVI
Format/Info : Audio Video Interleave
File size : 1.49 GiB
Duration : 1h 41mn
Overall bit rate : 2 108 Kbps

Video
ID : 0
Format : MPEG-4 Visual
Format profile : Advanced Simple@L5
Format settings, BVOP : 2
Format settings, QPel : No
Format settings, GMC : No warppoints
Format settings, Matrix : Default (H.263)
Codec ID : XVID
Codec ID/Hint : XviD
Duration : 1h 41mn
Bit rate : 1 973 Kbps
Width : 656 pixels
Height : 336 pixels
Display aspect ratio : 1.952
Frame rate : 29.970 fps
Color space : YUV
Chroma subsampling : 4:2:0
Bit depth : 8 bits
Scan type : Progressive
Compression mode : Lossy
Bits/(Pixel*Frame) : 0.299
Stream size : 1.40 GiB (94%)
Writing library : XviD 1.2.1 (UTC 2008-12-04)

Audio
ID : 1
Format : MPEG Audio
Format version : Version 1
Format profile : Layer 3
Mode : Joint stereo
Mode extension : MS Stereo
Codec ID : 55
Codec ID/Hint : MP3
Duration : 1h 41mn
Bit rate mode : Constant
Bit rate : 128 Kbps
Channel(s) : 2 channels
Sampling rate : 48.0 KHz
Compression mode : Lossy
Stream size : 92.9 MiB (6%)

Download Machete Kills (2013) HDCAM Xvid 1.5GB

Download Machete Kills (2013) HDCAM Xvid 1.5GB

Download Machete Kills (2013) HDCAM Xvid 1.5GB

Download Machete Kills (2013) HDCAM Xvid 1.5GB

Download Machete Kills (2013) HDCAM Xvid 1.5GB

Download Machete Kills (2013) HDCAM Xvid 1.5GB

Uploaded.to,RapidGator,Extabit,Hugefiles,UMB

Click Here to Download

Putlocker

Click Here to Download
Share with Your Friends
Written by master