Share with Your Friends

Madras Cafe 2013 SuperCamRip XviD New Souce -rDX
iMDB

Madras Cafe 2013 SuperCamRip XviD New Souce -rDX

Plot
An Indian Intelligence agent (portrayed by John Abraham)[9] journeys into a war torn coastal island, to break a resolute rebel group. He deftly maneuvers his resources to make significant breakthroughs, amidst a scenario where the enemy has no face and the only counsel is ‘Don’t get caught.’ At various junctions, he meets a charismatic and passionate journalist (portrayed by Nargis Fakhri) who is following her will to reflect the truth behind the civil war. The story unfolds as their quest for the truth reveals a deeper conspiracy, by a faceless enemy, united to seize a common nemesis – India

Information
Format : MPEG-PS
File size : 689 MiB
Duration : 1h 57mn
Overall bit rate mode : Variable
Overall bit rate : 818 Kbps

Video
ID : 224 (0xE0)
Format : MPEG Video
Format version : Version 2
Format profile : Main@Main
Format settings, BVOP : Yes
Format settings, Matrix : Default
Format settings, GOP : Variable
Duration : 1h 57mn
Bit rate mode : Variable
Bit rate : 674 Kbps
Maximum bit rate : 9 672 Kbps
Width : 352 pixels
Height : 288 pixels
Display aspect ratio : 4:3
Frame rate : 25.000 fps
Standard : PAL
Color space : YUV
Chroma subsampling : 4:2:0
Bit depth : 8 bits
Scan type : Progressive
Compression mode : Lossy
Bits/(Pixel*Frame) : 0.266
Stream size : 568 MiB (82%)

Audio
ID : 192 (0xC0)
Format : MPEG Audio
Format version : Version 1
Format profile : Layer 2
Duration : 1h 57mn
Bit rate mode : Constant
Bit rate : 128 Kbps
Channel(s) : 2 channels
Sampling rate : 48.0 KHz
Compression mode : Lossy
Delay relative to video : -208ms
Stream size : 108 MiB (16%)

Madras Cafe 2013 SuperCamRip XviD New Souce -rDX

Madras Cafe 2013 SuperCamRip XviD New Souce -rDX

RapidGator

Click Here to Download

Uploaded.to

Click Here to Download

BillionUploads

Click Here to Download
Share with Your Friends
Written by DaaD