Share with Your Friends

Man Of Steel 2013 BRRip AAC x264-SSDD 600MB
iMDB

Man Of Steel 2013 BRRip AAC x264-SSDD 600MB

Plot
A young itinerant worker is forced to confront his secret extraterrestrial heritage when Earth is invaded by members of his race.

Information
Complete name : Man Of Steel 2013 BRRip AAC x264-SSDD.mp4
Format : MPEG-4
Format profile : Base Media
Codec ID : isom
File size : 550 MiB
Duration : 2h 13mn
Overall bit rate mode : Variable
Overall bit rate : 578 Kbps
Video
ID : 1
Format : AVC
Format/Info : Advanced Video Codec
Format profile : Main@L3.0
Format settings, CABAC : Yes
Format settings, ReFrames : 4 frames
Codec ID : avc1
Codec ID/Info : Advanced Video Coding
Duration : 2h 13mn
Bit rate : 526 Kbps
Maximum bit rate : 1 782 Kbps
Width : 720 pixels
Height : 300 pixels
Display aspect ratio : 2.40:1
Frame rate mode : Constant
Frame rate : 23.976 fps
Color space : YUV
Chroma subsampling : 4:2:0
Bit depth : 8 bits
Scan type : Progressive
Bits/(Pixel*Frame) : 0.102
Stream size : 501 MiB (91%)
Writing library : x264 core 138 r2358 9e941d1
Audio
ID : 2
Format : AAC
Format/Info : Advanced Audio Codec
Format profile : LC
Codec ID : 40
Duration : 2h 13mn
Bit rate mode : Variable
Bit rate : 48.0 Kbps
Maximum bit rate : 59.3 Kbps
Channel count : 2 channels
Channel positions : Front: L R
Sampling rate : 48.0 KHz
Compression mode : Lossy
Stream size : 45.7 MiB (8%)

Man Of Steel 2013 BRRip AAC x264-SSDD 600MB

Man Of Steel 2013 BRRip AAC x264-SSDD 600MB

Man Of Steel 2013 BRRip AAC x264-SSDD 600MB

Man Of Steel 2013 BRRip AAC x264-SSDD 600MB

Man Of Steel 2013 BRRip AAC x264-SSDD 600MB

UltraMegabit

Click Here to Download

RapidGator

Click Here to Download

HugeFiles

Click Here to Download

KingFiles

Click Here to Download

AnaFile

Click Here to Download

HulkFile

Click Here to Download

MegaFiles

Click Here to Download

SpeedShare

Click Here to Download

PutLocker

Click Here to Download
Share with Your Friends
Written by skull_6682