Share with Your Friends

Monsters University 2013 HDTS XVID AC3 BHRG
iMDB

Monsters University 2013 HDTS XVID AC3 BHRG

Plot
A look at the relationship between Mike and Sulley during their days at Monsters University — when they weren’t necessarily the best of friends

Information

***********************************************************************************************
Monsters University 2013 HDTS XVID AC3 BHRG
***********************************************************************************************

General Information

Format : AVI
Format/Info : Audio Video Interleave
File size : 1.30 GiB
Duration : 1h 34mn
Overall bit rate : 1 959 Kbps
Writing library : VirtualDub build 30091/release

Video
ID : 0
Format : MPEG-4 Visual
Format profile : Advanced Simple@L5
Format settings, BVOP : 2
Format settings, QPel : No
Format settings, GMC : No warppoints
Format settings, Matrix : Default (H.263)
Muxing mode : Packed bitstream
Codec ID : XVID
Codec ID/Hint : XviD
Duration : 1h 34mn
Bit rate : 1 693 Kbps
Width : 720 pixels
Height : 384 pixels
Display aspect ratio : 1.85:1
Frame rate : 25.000 fps
Color space : YUV
Chroma subsampling : 4:2:0
Bit depth : 8 bits
Scan type : Progressive
Compression mode : Lossy
Bits/(Pixel*Frame) : 0.245
Stream size : 1.12 GiB (86%)
Writing library : XviD 1.2.1 (UTC 2008-12-04)

Audio
ID : 1
Format : AC-3
Format/Info : Audio Coding 3
Mode extension : CM (complete main)
Format settings, Endianness : Big
Codec ID : 2000
Duration : 1h 34mn
Bit rate mode : Constant
Bit rate : 256 Kbps
Channel(s) : 6 channels
Channel positions : Front: L C R, Side: L R, LFE
Sampling rate : 48.0 KHz
Bit depth : 16 bits
Compression mode : Lossy
Stream size : 174 MiB (13%)

Monsters University 2013 HDTS XVID AC3 BHRG

Monsters University 2013 HDTS XVID AC3 BHRG

Monsters University 2013 HDTS XVID AC3 BHRG

Monsters University 2013 HDTS XVID AC3 BHRG

RapidGator

Click Here to Download
Click Here to Download 

Uploaded.to

Click Here to Download
Click Here to Download 

BillionUploads

Click Here to Download

Click Here to Download

180upload

Click Here to Download
Click Here to Download 

Putlocker

Click Here to Download
Click Here to Download  
Share with Your Friends
Written by DaaD