Share with Your Friends

Download Need For Speed 2014 720p HDRip HC x264 AC3-RARBG
iMDB

Download Need For Speed 2014 720p HDRip HC x264 AC3-RARBG

Plot

Fresh from prison, a street racer who was framed by a wealthy business associate joins a cross country race with revenge in mind. His ex-partner, learning of the plan, places a massive bounty on his head as the race begins.

Information

Video
ID : 1
Format : AVC
Format/Info : Advanced Video Codec
Format profile : High@L3.1
Format settings, CABAC : Yes
Format settings, ReFrames : 4 frames
Codec ID : V_MPEG4/ISO/AVC
Duration : 2h 5mn
Bit rate : 3 000 Kbps
Width : 1 280 pixels
Height : 536 pixels
Display aspect ratio : 2.40:1
Frame rate mode : Constant
Frame rate : 30.000 fps
Color space : YUV
Chroma subsampling : 4:2:0
Bit depth : 8 bits
Scan type : Progressive
Bits/(Pixel*Frame) : 0.146
Stream size : 2.56 GiB (91%)
Title : Need.For.Speed.2014.720p.HDRip.HC.x264.AC3-RARBG
Writing library : x264 core 116 r2074 2641b9e
Language : English
Default : Yes
Forced : No

Audio
ID : 2
Format : AC-3
Format/Info : Audio Coding 3
Mode extension : CM (complete main)
Format settings, Endianness : Big
Codec ID : A_AC3
Duration : 2h 5mn
Bit rate mode : Constant
Bit rate : 224 Kbps
Channel(s) : 2 channels
Channel positions : Front: L R
Sampling rate : 48.0 KHz
Bit depth : 16 bits
Compression mode : Lossy
Stream size : 201 MiB (7%)
Title : Need.For.Speed.2014.720p.HDRip.HC.x264.AC3-RARBG
Language : English
Default : Yes
Forced : No

Download Need For Speed 2014 720p HDRip HC x264 AC3-RARBG

Download Need For Speed 2014 720p HDRip HC x264 AC3-RARBG

Download Need For Speed 2014 720p HDRip HC x264 AC3-RARBG

Download Need For Speed 2014 720p HDRip HC x264 AC3-RARBG

Download Need For Speed 2014 720p HDRip HC x264 AC3-RARBG

HugeFile

Click Here to Download

Click Here to Download


Click Here to Download


Click Here to Download

180Upload

Click Here to Download

Click Here to Download


Click Here to Download


Click Here to Download

Sockshare

Click Here to Download

Click Here to Download


Click Here to Download


Click Here to Download

TurboBit

Click Here to Download

Click Here to Download


Click Here to Download


Click Here to Download

Uploaded.to

Click Here to Download

Click Here to Download


Click Here to Download


Click Here to Download

RapidGator

Click Here to Download

Click Here to Download


Click Here to Download


Click Here to Download
Share with Your Friends
Written by ED12