Share with Your Friends

Download Nymphomaniac Volume I UNRATED WEBRip x264 AC3-TiTAN
iMDB

Download Nymphomaniac Volume I UNRATED WEBRip x264 AC3-TiTAN

Plot

A self-diagnosed nymphomaniac recounts her erotic experiences to the man who saved her after a beating.

Information

General
Format : Matroska
Format version : Version 2
File size : 915 MiB
Duration : 1h 50mn
Overall bit rate mode : Variable
Overall bit rate : 1 157 Kbps
Encoded date : UTC 2014-03-05 19:48:07
Writing application : mkvmerge v6.5.0 (‘Isn’t she lovely’) built on Oct 20 2013 12:50:05
Writing library : libebml v1.3.0 + libmatroska v1.4.1

Video
ID : 1
Format : AVC
Format/Info : Advanced Video Codec
Format profile : High@L4.1
Format settings, CABAC : Yes
Format settings, ReFrames : 3 frames
Codec ID : V_MPEG4/ISO/AVC
Duration : 1h 50mn
Bit rate mode : Variable
Bit rate : 942 Kbps
Maximum bit rate : 40.0 Mbps
Width : 720 pixels
Height : 304 pixels
Display aspect ratio : 2.35:1
Frame rate mode : Constant
Frame rate : 25.000 fps
Color space : YUV
Chroma subsampling : 4:2:0
Bit depth : 8 bits
Scan type : Progressive
Bits/(Pixel*Frame) : 0.172
Stream size : 745 MiB (81%)
Writing library : x264 core 138 r2358 9e941d1
Default : Yes
Forced : No
Color primaries : BT.709
Transfer characteristics : BT.709
Matrix coefficients : BT.709

Audio
ID : 2
Format : AC-3
Format/Info : Audio Coding 3
Mode extension : CM (complete main)
Format settings, Endianness : Big
Codec ID : A_AC3
Duration : 1h 50mn
Bit rate mode : Constant
Bit rate : 192 Kbps
Channel(s) : 2 channels
Channel positions : Front: L R
Sampling rate : 44.1 KHz
Bit depth : 16 bits
Compression mode : Lossy
Stream size : 152 MiB (17%)
Default : Yes
Forced : No

Download Nymphomaniac Volume I UNRATED WEBRip x264 AC3-TiTAN

Download Nymphomaniac Volume I UNRATED WEBRip x264 AC3-TiTAN

Download Nymphomaniac Volume I UNRATED WEBRip x264 AC3-TiTAN

Download Nymphomaniac Volume I UNRATED WEBRip x264 AC3-TiTAN

Download Nymphomaniac Volume I UNRATED WEBRip x264 AC3-TiTAN

Download Nymphomaniac Volume I UNRATED WEBRip x264 AC3-TiTAN

Download Nymphomaniac Volume I UNRATED WEBRip x264 AC3-TiTAN

HugeFile

Click Here to Download

Click Here to Download


Click Here to Download

MultiUpload

Click Here to Download

Click Here to Download


Click Here to Download

180Upload

Click Here to Download

Click Here to Download


Click Here to Download

PutLocker (FireDrive)

Click Here to Download

Click Here to Download


Click Here to Download

TurboBit

Click Here to Download

Click Here to Download


Click Here to Download

Uploaded.to

Click Here to Download

Click Here to Download


Click Here to Download

RapidGator

Click Here to Download

Click Here to Download


Click Here to Download
Share with Your Friends
Written by ED12