Share with Your Friends

Download Nymphomaniac Volume II UNRATED WEBRip x264 AC3-TiTAN
iMDB

Download Nymphomaniac Volume II UNRATED WEBRip x264 AC3-TiTAN

Plot

The continuation of Joe’s sexually dictated life delves into the darker aspects of her adult life and what led to her being in Seligman’s care.

Information

General
Format : Matroska
Format version : Version 2
File size : 1 022 MiB
Duration : 1h 58mn
Overall bit rate : 1 208 Kbps
Encoded date : UTC 2014-03-06 01:41:31
Writing application : mkvmerge v6.5.0 (‘Isn’t she lovely’) built on Oct 20 2013 12:50:05
Writing library : libebml v1.3.0 + libmatroska v1.4.1

Video
ID : 1
Format : AVC
Format/Info : Advanced Video Codec
Format profile : High@L2.1
Format settings, CABAC : Yes
Format settings, ReFrames : 4 frames
Codec ID : V_MPEG4/ISO/AVC
Duration : 1h 58mn
Bit rate : 1 014 Kbps
Width : 608 pixels
Height : 256 pixels
Display aspect ratio : 2.40:1
Frame rate mode : Constant
Frame rate : 25.000 fps
Color space : YUV
Chroma subsampling : 4:2:0
Bit depth : 8 bits
Scan type : Progressive
Bits/(Pixel*Frame) : 0.261
Stream size : 839 MiB (82%)
Default : Yes
Forced : No

Audio
ID : 2
Format : AC-3
Format/Info : Audio Coding 3
Mode extension : CM (complete main)
Format settings, Endianness : Big
Codec ID : A_AC3
Duration : 1h 58mn
Bit rate mode : Constant
Bit rate : 192 Kbps
Channel(s) : 2 channels
Channel positions : Front: L R
Sampling rate : 44.1 KHz
Bit depth : 16 bits
Compression mode : Lossy
Stream size : 162 MiB (16%)
Language : English
Default : Yes
Forced : No

Download Nymphomaniac Volume II UNRATED WEBRip x264 AC3-TiTAN

Download Nymphomaniac Volume II UNRATED WEBRip x264 AC3-TiTAN

Download Nymphomaniac Volume II UNRATED WEBRip x264 AC3-TiTAN

Download Nymphomaniac Volume II UNRATED WEBRip x264 AC3-TiTAN

Download Nymphomaniac Volume II UNRATED WEBRip x264 AC3-TiTAN

Download Nymphomaniac Volume II UNRATED WEBRip x264 AC3-TiTAN

Download Nymphomaniac Volume II UNRATED WEBRip x264 AC3-TiTAN

Download Nymphomaniac Volume II UNRATED WEBRip x264 AC3-TiTAN

HugeFile

Click Here to Download

Click Here to Download


Click Here to Download

MultiUpload

Click Here to Download

Click Here to Download


Click Here to Download

180Upload

Click Here to Download

Click Here to Download


Click Here to Download

PutLocker (FireDrive)

Click Here to Download

Click Here to Download


Click Here to Download

TurboBit

Click Here to Download

Click Here to Download


Click Here to Download

Uploaded.to

Click Here to Download

Click Here to Download


Click Here to Download

RapidGator

Click Here to Download

Click Here to Download


Click Here to Download
Share with Your Friends
Written by ED12