Share with Your Friends

Download Oculus 2013 720p WEBRip CAM AUDIO x264 AC3-MiLLENiUM
iMDB

Download Oculus 2013 720p WEBRip CAM AUDIO x264 AC3-MiLLENiUM

Plot

Ten years ago, tragedy struck the Russell family, leaving the lives of teenage siblings Tim and Kaylie forever changed when Tim was convicted of the brutal murder of their parents. Now in his 20s, Tim is newly released from protective custody and only wants to move on with his life; but Kaylie, still haunted by that fateful night, is convinced her parents’ deaths were caused by something else altogether: a malevolent supernatural force unleashed through the Lasser Glass, an antique mirror in their childhood home. Determined to prove Tim’s innocence, Kaylie tracks down the mirror, only to learn similar deaths have befallen previous owners over the past century. With the mysterious entity now back in their hands, Tim and Kaylie soon find their hold on reality shattered by terrifying hallucinations, and realize, too late, that their childhood nightmare is beginning again…

Information

General
Complete name : Oculus 2013 720p WEBRip CAM AUDIO x264 AC3-MiLLENiUM.mkv
Format : Matroska
Format version : Version 2
File size : 2.93 GiB
Duration : 1h 42mn
Overall bit rate : 4 086 Kbps
Encoded date : UTC 2014-05-15 01:01:30
Writing application : mkvmerge v6.9.1 (‘Blue Panther’) 32bit built on Apr 18 2014 >>
18:15:44
Writing library : libebml v1.3.0 + libmatroska v1.4.1

ID : 1
Format : AVC
Format/Info : Advanced Video Codec
Format profile : Main@L3.1
Format settings, CABAC : No
Format settings, ReFrames : 2 frames
Codec ID : V_MPEG4/ISO/AVC
Duration : 1h 42mn
Bit rate : 3 813 Kbps
Width : 1 280 pixels
Height : 540 pixels
Display aspect ratio : 2.40:1
Frame rate mode : Constant
Frame rate : 24.000 fps
Color space : YUV
Chroma subsampling : 4:2:0
Bit depth : 8 bits
Scan type : Progressive
Bits/(Pixel*Frame) : 0.230
Stream size : 2.74 GiB (93%)
Default : No
Forced : No
Color primaries : BT.709
Transfer characteristics : BT.709
Matrix coefficients : BT.709

ID : 2
Format : AC-3
Format/Info : Audio Coding 3
Mode extension : CM (complete main)
Format settings, Endianness : Big
Codec ID : A_AC3
Duration : 1h 42mn
Bit rate mode : Constant
Bit rate : 192 Kbps
Channel(s) : 2 channels
Channel positions : Front: L R
Sampling rate : 48.0 KHz
Bit depth : 16 bits
Compression mode : Lossy
Stream size : 141 MiB (5%)
Language : English
Default : Yes
Forced : No

Download Oculus 2013 720p WEBRip CAM AUDIO x264 AC3-MiLLENiUM

Download Oculus 2013 720p WEBRip CAM AUDIO x264 AC3-MiLLENiUM

Download Oculus 2013 720p WEBRip CAM AUDIO x264 AC3-MiLLENiUM

Download Oculus 2013 720p WEBRip CAM AUDIO x264 AC3-MiLLENiUM

Download Oculus 2013 720p WEBRip CAM AUDIO x264 AC3-MiLLENiUM

MultiUpload

Click Here to Download

Click Here to Download


Click Here to Download

PutLocker (FireDrive)

Click Here to Download

Click Here to Download


Click Here to Download

Uploaded.to

Click Here to Download

Click Here to Download


Click Here to Download

RapidGator

Click Here to Download

Click Here to Download


Click Here to Download
Share with Your Friends
Written by ED12