Share with Your Friends

Download Oscars Red Carpet Live 2014 HDTV x264-2HD

Download Oscars Red Carpet Live 2014 HDTV x264-2HD

Red-carpet arrivals and interviews with Oscar nominees and other Hollywood notables. Hosted by Robin Roberts, Lara Spencer, Jess Cagle and Tyson Beckford.

Information

General
Format : MPEG-4
Format profile : Base Media
Codec ID : isom
File size : 682 MiB
Duration : 1h 2mn
Overall bit rate : 1 524 Kbps
Encoded date : UTC 2014-03-03 01:32:27
Tagged date : UTC 2014-03-03 01:32:27

Video
ID : 1
Format : AVC
Format/Info : Advanced Video Codec
Format profile : High@L3.1
Format settings, CABAC : Yes
Format settings, ReFrames : 5 frames
Codec ID : avc1
Codec ID/Info : Advanced Video Coding
Duration : 1h 2mn
Bit rate : 1 379 Kbps
Maximum bit rate : 4 089 Kbps
Width : 720 pixels
Height : 404 pixels
Display aspect ratio : 16:9
Frame rate mode : Constant
Frame rate : 29.970 fps
Color space : YUV
Chroma subsampling : 4:2:0
Bit depth : 8 bits
Scan type : Progressive
Bits/(Pixel*Frame) : 0.158
Stream size : 617 MiB (91%)
Writing library : x264 core 142 r2389 956c8d8
Encoded date : UTC 2014-03-03 00:47:29
Tagged date : UTC 2014-03-03 01:32:30
Material_Duration : 3753683
Material_StreamSize : 647041642
Material_FrameCount : 112498
Matrix coefficients : BT.709-5, BT.1361, IEC 61966-2-4 709, SMPTE RP177

Audio
ID : 2
Format : AAC
Format/Info : Advanced Audio Codec
Format profile : LC
Codec ID : 40
Duration : 1h 2mn
Bit rate mode : Variable
Bit rate : 140 Kbps
Maximum bit rate : 155 Kbps
Channel(s) : 2 channels
Channel positions : Front: L R
Sampling rate : 48.0 KHz
Compression mode : Lossy
Stream size : 62.7 MiB (9%)
Encoded date : UTC 2014-03-03 01:32:29
Tagged date : UTC 2014-03-03 01:32:30

Download Oscars Red Carpet Live 2014 HDTV x264-2HD

Download Oscars Red Carpet Live 2014 HDTV x264-2HD

HugeFile

Click Here to Download

180Upload

Click Here to Download

kingfiles

Click Here to Download

Sockshare

Click Here to Download

PutLocker (FireDrive)

Click Here to Download

TurboBit

Click Here to Download

Uploaded.to

Click Here to Download

NetLoad

Click Here to Download

RapidGator

Click Here to Download
Share with Your Friends
Written by ED12