Share with Your Friends

Download Parts Per Billion 2014 720p WEBRip x264 AC3-MiLLENiUM
iMDB

Download Parts Per Billion 2014 720p WEBRip x264 AC3-MiLLENiUM

Plot

The interwoven stories of three couples which are forced to make life altering decisions in the face of a disastrous war. Inspired and sometimes blinded by their love, Len, Mia, Andy, Esther, Anna and Erik are as flawed and beautiful as any of the billions who are facing this human-made biological disaster.

Information

General
Format : Matroska
Format version : Version 2
File size : 2.01 GiB
Duration : 1h 38mn
Overall bit rate : 2 922 Kbps
Encoded date : UTC 2014-05-20 11:27:51
Writing application : mkvmerge v6.5.0 (‘Isn’t she lovely’)
Writing library : libebml v1.3.0 + libmatroska v1.4.1

Video
ID : 1
Format : AVC
Format/Info : Advanced Video Codec
Format profile : High@L4.1
Format settings, CABAC : Yes
Format settings, ReFrames : 3 frames
Codec ID : V_MPEG4/ISO/AVC
Duration : 1h 38mn
Bit rate : 2 480 Kbps
Width : 1 280 pixels
Height : 688 pixels
Display aspect ratio : 1.85:1
Frame rate mode : Constant
Frame rate : 23.976 fps
Color space : YUV
Chroma subsampling : 4:2:0
Bit depth : 8 bits
Scan type : Progressive
Bits/(Pixel*Frame) : 0.117
Stream size : 1.71 GiB (85%)
Language : English
Default : Yes
Forced : No
Color primaries : BT.709
Transfer characteristics : BT.709
Matrix coefficients : BT.709

Audio
ID : 2
Format : AC-3
Format/Info : Audio Coding 3
Mode extension : CM (complete main)
Format settings, Endianness : Big
Codec ID : A_AC3
Duration : 1h 38mn
Bit rate mode : Constant
Bit rate : 384 Kbps
Channel(s) : 6 channels
Channel positions : Front: L C R, Side: L R, LFE
Sampling rate : 48.0 KHz
Bit depth : 16 bits
Compression mode : Lossy
Stream size : 271 MiB (13%)
Language : English
Default : Yes
Forced : No

Download Parts Per Billion 2014 720p WEBRip x264 AC3-MiLLENiUM

Download Parts Per Billion 2014 720p WEBRip x264 AC3-MiLLENiUM

Download Parts Per Billion 2014 720p WEBRip x264 AC3-MiLLENiUM

Download Parts Per Billion 2014 720p WEBRip x264 AC3-MiLLENiUM

Download Parts Per Billion 2014 720p WEBRip x264 AC3-MiLLENiUM

HugeFile

Click Here to Download

Click Here to Download


Click Here to Download

MultiUpload

Click Here to Download

Click Here to Download


Click Here to Download

180Upload

Click Here to Download

Click Here to Download


Click Here to Download

Sockshare

Click Here to Download

Click Here to Download


Click Here to Download

TurboBit

Click Here to Download

Click Here to Download


Click Here to Download

Uploaded.to

Click Here to Download

Click Here to Download


Click Here to Download

RapidGator

Click Here to Download

Click Here to Download


Click Here to Download
Share with Your Friends
Written by ED12