Share with Your Friends

PERCY JACKSON SEA OF MONSTERS 2013 WEB-DL 1080p-HDREACTOR
iMDB

PERCY JACKSON SEA OF MONSTERS 2013 WEB-DL 1080p-HDREACTOR

Plot

In order to restore their dying safe haven, the son of Poseidon and his friends embark on a quest to the Sea of Monsters to find the mythical Golden Fleece while trying to stop an ancient evil from rising.

Information

Video
ID : 1
Format : AVC
Format/Info : Advanced Video Codec
Format profile : High@L4.0
Format settings, CABAC : Yes
Format settings, ReFrames : 5 frames
Format settings, GOP : M=2, N=49
Codec ID : V_MPEG4/ISO/AVC
Duration : 1h 46mn
Bit rate : 4 494 Kbps
Width : 1 916 pixels
Height : 812 pixels
Display aspect ratio : 2.35:1
Frame rate : 23.976 fps
Color space : YUV
Chroma subsampling : 4:2:0
Bit depth : 8 bits
Scan type : Progressive
Bits/(Pixel*Frame) : 0.120
Stream size : 3.34 GiB (88%)
Language : English
Color primaries : BT.709-5, BT.1361, IEC 61966-2-4, SMPTE RP177
Transfer characteristics : BT.709-5, BT.1361
Matrix coefficients : BT.709-5, BT.1361, IEC 61966-2-4 709, SMPTE RP177

Audio #1
ID : 2
Format : AC-3
Format/Info : Audio Coding 3
Mode extension : CM (complete main)
Codec ID : A_AC3
Duration : 1h 46mn
Bit rate mode : Constant
Bit rate : 192 Kbps
Channel(s) : 2 channels
Channel positions : Front: L R
Sampling rate : 48.0 KHz
Bit depth : 16 bits
Compression mode : Lossy
Stream size : 146 MiB (4%)
Title : Russian AC-3 (48.0 KHz; 192 Kbps; 2 ch L, R; 16 bit)
Language : Russian

Audio #2
ID : 3
Format : AC-3
Format/Info : Audio Coding 3
Mode extension : CM (complete main)
Codec ID : A_AC3
Duration : 1h 46mn
Bit rate mode : Constant
Bit rate : 192 Kbps
Channel(s) : 2 channels
Channel positions : Front: L R
Sampling rate : 48.0 KHz
Bit depth : 16 bits
Compression mode : Lossy
Stream size : 146 MiB (4%)
Title : English AC-3 (48.0 KHz; 192 Kbps; 2 ch L, R; 16 bit)
Language : English

Audio #3
ID : 4
Format : AC-3
Format/Info : Audio Coding 3
Mode extension : CM (complete main)
Codec ID : A_AC3
Duration : 1h 46mn
Bit rate mode : Constant
Bit rate : 128 Kbps
Channel(s) : 2 channels
Channel positions : Front: L R
Sampling rate : 48.0 KHz
Bit depth : 16 bits
Compression mode : Lossy
Stream size : 97.5 MiB (3%)
Title : German AC-3 (48.0 KHz; 128 Kbps; 2 ch L, R; 16 bit)
Language : German

PERCY JACKSON SEA OF MONSTERS 2013 WEB-DL 1080p-HDREACTOR

PERCY JACKSON SEA OF MONSTERS 2013 WEB-DL 1080p-HDREACTOR

PERCY JACKSON SEA OF MONSTERS 2013 WEB-DL 1080p-HDREACTOR

PERCY JACKSON SEA OF MONSTERS 2013 WEB-DL 1080p-HDREACTOR

RapidGator

Click Here to Download

Click Here to Download


Click Here to Download


Click Here to Download

Uploaded.to

Click Here to Download

Click Here to Download


Click Here to Download


Click Here to Download

BillionUploads

Click Here to Download

Click Here to Download


Click Here to Download


Click Here to Download

180Upload


Click Here to Download


Click Here to Download


Click Here to Download

Click Here to Download 

PutLocker

Click Here to Download
Share with Your Friends
Written by DaaD