Share with Your Friends

Download Plague 2014 720p WEBRip x264 AC3-FooKaS

iMDB

Download Plague 2014 720p WEBRip x264 AC3-FooKaS

Plot

A small group of survivors in post-apocalyptic Australia seek shelter from an infection that has spread like a plague among the human populace. Evie (Tegan Crowley) and her fellow survivors become separated from her husband John (Scott Marcus). Evie refuses to leave John behind against the wishes of the group. The survivors revolt and abandon Evie to an uncertain fate. With the unexpected arrival of Charlie (Steven Kennedy) what appears to be an opportunity at a new beginning quickly turns to horror as menacing as the infected that pursue them.
Information

General
Format : Matroska
File size : 2.45 GiB
Duration : 1h 29mn
Overall bit rate : 3 916 Kbps

Video
ID : 1
Format : AVC
Format/Info : Advanced Video Codec
Format profile : High L4.1
Format settings, CABAC : Yes
Format settings, ReFrames : 6 frames
Codec ID : V_MPEG4/ISO/AVC
Duration : 1h 29mn
Bit rate : 3 532 Kbps
Width : 1 280 pixels
Height : 720 pixels
Display aspect ratio : 16:9
Frame rate : 23.976 fps
Color space : YUV
Chroma subsampling : 4:2:0
Bit depth : 8 bits
Scan type : Progressive
Bits/(Pixel*Frame) : 0.160
Stream size : 2.16 GiB (88%)

Audio
ID : 2
Format : AC-3
Format/Info : Audio Coding 3
Mode extension : CM (complete main)
Codec ID : A_AC3
Duration : 1h 29mn
Bit rate mode : Constant
Bit rate : 384 Kbps
Channel(s) : 6 channels
Channel positions : Front: L C R, Side: L R, LFE
Sampling rate : 48.0 KHz
Bit depth : 16 bits
Compression mode : Lossy
Stream size : 246 MiB (10%)
Language : English
Download Plague 2014 720p WEBRip x264 AC3-FooKaS

Download Plague 2014 720p WEBRip x264 AC3-FooKaS

Go4Up

Click Here to Download

24uploading

Click Here to Download

Uploaded

Click Here to Download

RapidGator

Click Here to Download
Share with Your Friends
Written by ED12