Share with Your Friends

Download Pound of Flesh 2015 HDRIP x264 AC3 TiTAN

iMDB

Download Pound of Flesh 2015 HDRIP x264 AC3 TiTAN

(Plot)

A man’s heroic attempt to help a woman in distress ends up with him waking up the next day without a kidney and plotting his revenge.

(Information)

Source: Itunes

General

Format : Matroska
Format version : Version 2
File size : 1.42 GiB
Duration : 1h 44mn
Overall bit rate mode : Variable
Overall bit rate : 1 946 Kbps

Video
ID : 1
Format : AVC
Format/Info : Advanced Video Codec
Format profile : High@L4.1
Format settings, CABAC : Yes
Format settings, ReFrames : 3 frames
Codec ID : V_MPEG4/ISO/AVC
Duration : 1h 44mn
Bit rate mode : Variable
Bit rate : 1 524 Kbps
Maximum bit rate : 40.0 Mbps
Width : 720 pixels
Height : 400 pixels
Display aspect ratio : 16:9
Frame rate mode : Constant
Frame rate : 23.976 fps
Color space : YUV
Chroma subsampling : 4:2:0
Bit depth : 8 bits
Scan type : Progressive
Bits/(Pixel*Frame) : 0.221
Stream size : 1.11 GiB (78%)
Default : Yes
Forced : No
Color primaries : BT.709
Transfer characteristics : BT.709
Matrix coefficients : BT.709

Audio
ID : 2
Format : AC-3
Format/Info : Audio Coding 3
Mode extension : CM (complete main)
Format settings, Endianness : Big
Codec ID : A_AC3
Duration : 1h 44mn
Bit rate mode : Constant
Bit rate : 384 Kbps
Channel(s) : 6 channels
Channel positions : Front: L C R, Side: L R, LFE
Sampling rate : 48.0 KHz
Bit depth : 16 bits
Compression mode : Lossy
Stream size : 287 MiB (20%)
Language : English
Default : Yes
Forced : No


Download Pound of Flesh
Download Pound of Flesh
Download Pound of Flesh

Download Pound of Flesh 2015 HDRIP x264 AC3 TiTAN

24Uploading (Recommended)

Click Here to Download

UP4.iM

Click Here to Download

Uploaded

Click Here to Download

Uploadable

Click Here to Download

RapidGator

Click Here to Download

Jumbofile

Click Here to Download
Share with Your Friends
Written by S H E R i F