Share with Your Friends

Download Pumping Iron (1977) 720p BRRip 700MB - YIFY

iMDB

Download Pumping Iron (1977) 720p BRRip 700MB – YIFY

Plot

From Gold’s Gym in Venice Beach California to the showdown in Pretoria, amateur and professional bodybuilders prepare for the 1975 Mr. Olympia and Mr. Universe contests in this part-scripted, part-documentary film. Five-time champion Arnold Schwarzenegger defends his Mr. Olympia title against Serge Nubret and the shy young deaf Lou Ferrigno, whose father is his coach; the ruthless champ psyches out the young lion. Sardinian Franco Columbu competes in the lightweight class; at home in Italy he solves a tight parking problem by lifting the car into place. Joe Weider is the marketer; Mike Katz and Ken Waller go for the title of Mr. Universe. Bodybuilding and a celebrity-to-be go mainstream.
Information

General
Format : MPEG-4
Format profile : Base Media
Codec ID : isom
File size : 701 MiB
Duration : 1h 25mn
Overall bit rate : 1 142 Kbps

Video
ID : 1
Format : AVC
Format/Info : Advanced Video Codec
Format profile : High L4.1
Format settings, CABAC : Yes
Format settings, ReFrames : 4 frames
Codec ID : avc1
Codec ID/Info : Advanced Video Coding
Duration : 1h 25mn
Bit rate mode : Variable
Bit rate : 1 044 Kbps
Maximum bit rate : 4 739 Kbps
Width : 1 280 pixels
Height : 720 pixels
Display aspect ratio : 16:9
Frame rate mode : Constant
Frame rate : 23.976 fps
Color space : YUV
Chroma subsampling : 4:2:0
Bit depth : 8 bits
Scan type : Progressive
Bits/(Pixel*Frame) : 0.047
Stream size : 641 MiB (91%)
Writing library : x264 core 123 r2189 35cf912

Audio
ID : 2
Format : AAC
Format/Info : Advanced Audio Codec
Format profile : LC
Codec ID : 40
Duration : 1h 25mn
Bit rate mode : Variable
Bit rate : 94.0 Kbps
Maximum bit rate : 104 Kbps
Channel(s) : 2 channels
Channel positions : Front: L R
Sampling rate : 48.0 KHz
Compression mode : Lossy
Stream size : 57.7 MiB (8%)
Download Pumping Iron (1977) 720p BRRip 700MB - YIFY
Download Pumping Iron (1977) 720p BRRip 700MB - YIFY

Download Pumping Iron (1977) 720p BRRip 700MB – YIFY

24Uploading (Recommended)

Click Here to Download

UptoBox

Click Here to Download

HugeFile

Click Here to Download

TurboBit

Click Here to Download

Uploaded

Click Here to Download

RapidGator

Click Here to Download
Share with Your Friends
Written by ED12