Share with Your Friends

Download Raze 2013 1080p WEB-DL H264-RARBG
iMDB

Download Raze 2013 1080p WEB-DL H264-RARBG

Plot

Raze, a horror/action film, focuses on two abducted women & 50 other women who are forced to fight each other using their bare hands.

Information

Video
ID : 1
Format : AVC
Format/Info : Advanced Video Codec
Format profile : High@L4.0
Format settings, CABAC : Yes
Format settings, ReFrames : 5 frames
Codec ID : V_MPEG4/ISO/AVC
Duration : 1h 32mn
Bit rate : 3 742 Kbps
Width : 1 920 pixels
Height : 792 pixels
Display aspect ratio : 2.40:1
Frame rate mode : Constant
Frame rate : 23.976 fps
Color space : YUV
Chroma subsampling : 4:2:0
Bit depth : 8 bits
Scan type : Progressive
Bits/(Pixel*Frame) : 0.103
Stream size : 2.41 GiB (89%)
Language : English
Default : Yes
Forced : No
Color primaries : BT.709
Transfer characteristics : BT.709
Matrix coefficients : BT.709

Audio
ID : 2
Format : AC-3
Format/Info : Audio Coding 3
Mode extension : CM (complete main)
Format settings, Endianness : Big
Codec ID : A_AC3
Duration : 1h 32mn
Bit rate mode : Constant
Bit rate : 384 Kbps
Channel(s) : 6 channels
Channel positions : Front: L C R, Side: L R, LFE
Sampling rate : 48.0 KHz
Bit depth : 16 bits
Compression mode : Lossy
Stream size : 253 MiB (9%)
Language : English
Default : Yes
Forced : No

Download Raze 2013 1080p WEB-DL H264-RARBG

Download Raze 2013 1080p WEB-DL H264-RARBG

Download Raze 2013 1080p WEB-DL H264-RARBG

Download Raze 2013 1080p WEB-DL H264-RARBG

MultiUpload

Click Here to Download

Click Here to Download


Click Here to Download

PutLocker (FireDrive)

Click Here to Download

Click Here to Download


Click Here to Download

Uploaded.to

Click Here to Download

Click Here to Download


Click Here to Download

RapidGator

Click Here to Download

Click Here to Download


Click Here to Download
Share with Your Friends
Written by ED12