Share with Your Friends

Download Reach Me (2014) 1080p BluRay H264 AAC-RARBG
iMDB

Download Reach Me (2014) 1080p BluRay H264 AAC-RARBG

Information

Video
ID : 1
Format : AVC
Format/Info : Advanced Video Codec
Format profile : High@L4.1
Format settings, CABAC : Yes
Format settings, ReFrames : 4 frames
Codec ID : avc1
Codec ID/Info : Advanced Video Coding
Duration : 1h 32mn
Bit rate : 2 500 Kbps
Width : 1 920 pixels
Height : 800 pixels
Display aspect ratio : 2.40:1
Frame rate mode : Constant
Frame rate : 23.976 fps
Color space : YUV
Chroma subsampling : 4:2:0
Bit depth : 8 bits
Scan type : Progressive
Bits/(Pixel*Frame) : 0.068
Stream size : 1.61 GiB (92%)
Writing library : x264 core 142 r2491M 24e4fed

Audio
ID : 2
Format : AAC
Format/Info : Advanced Audio Codec
Format profile : LC
Codec ID : 40
Duration : 1h 32mn
Duration_LastFrame : 43ms
Bit rate mode : Constant
Bit rate : 224 Kbps
Channel(s) : 2 channels
Channel(s)_Original : 6 channels
Channel positions : Front: L C R, Side: L R, LFE
Sampling rate : 48.0 KHz
Compression mode : Lossy
Stream size : 148 MiB (8%)
Language : English
Encoded date : UTC 1904-01-01 00:00:00
Tagged date : UTC 1904-01-01 00:00:00

Download Reach Me (2014) 1080p BluRay H264 AAC-RARBG

Download Reach Me (2014) 1080p BluRay H264 AAC-RARBG

Download Reach Me (2014) 1080p BluRay H264 AAC-RARBG

24UPLOADING

Click Here to Download

Click Here to Download

UPLOADED.TO

Click Here to Download
Share with Your Friends
Written by HDC0OL