Share with Your Friends

Download Reach Me (2014) 720p BRRip XviD AC3-RARBG
iMDB

Download Reach Me (2014) 720p BRRip XviD AC3-RARBG

Information

Video
ID : 0
Format : MPEG-4 Visual
Format profile : Simple@L5
Format settings, BVOP : No
Format settings, QPel : No
Format settings, GMC : No warppoints
Format settings, Matrix : Default (H.263)
Codec ID : XVID
Codec ID/Hint : XviD
Duration : 1h 32mn
Bit rate : 3 783 Kbps
Width : 1 280 pixels
Height : 536 pixels
Display aspect ratio : 2.40:1
Frame rate : 23.976 fps
Color space : YUV
Chroma subsampling : 4:2:0
Bit depth : 8 bits
Scan type : Progressive
Compression mode : Lossy
Bits/(Pixel*Frame) : 0.230
Stream size : 2.44 GiB (85%)
Writing library : Lavc56.12.101

Audio
ID : 1
Format : AC-3
Format/Info : Audio Coding 3
Mode extension : CM (complete main)
Format settings, Endianness : Big
Codec ID : 2000
Duration : 1h 32mn
Bit rate mode : Constant
Bit rate : 640 Kbps
Channel(s) : 6 channels
Channel positions : Front: L C R, Side: L R, LFE
Sampling rate : 48.0 KHz
Bit depth : 16 bits
Compression mode : Lossy
Stream size : 422 MiB (14%)
Alignment : Aligned on interleaves
Interleave, duration : 42 ms (1.00 video frame)
Interleave, preload duration : 512 ms

Download Reach Me (2014) 720p BRRip XviD AC3-RARBG

Download Reach Me (2014) 720p BRRip XviD AC3-RARBG

Download Reach Me (2014) 720p BRRip XviD AC3-RARBG

24UPLOADING

Click Here to Download

Click Here to Download


Click Here to Download


Click Here to Download

UPLOADED.TO

Click Here to Download
Share with Your Friends
Written by HDC0OL