Share with Your Friends

Download Reach Me (2014) BRRip XviD MP3-RARBG
iMDB

Download Reach Me (2014) BRRip XviD MP3-RARBG

Information

Video
ID : 0
Format : MPEG-4 Visual
Format profile : Simple@L5
Format settings, BVOP : No
Format settings, QPel : No
Format settings, GMC : No warppoints
Format settings, Matrix : Default (H.263)
Codec ID : XVID
Codec ID/Hint : XviD
Duration : 1h 32mn
Bit rate : 1 594 Kbps
Width : 720 pixels
Height : 302 pixels
Display aspect ratio : 2.40:1
Original display aspect ratio : 2.40:1
Frame rate : 23.976 fps
Color space : YUV
Chroma subsampling : 4:2:0
Bit depth : 8 bits
Scan type : Progressive
Compression mode : Lossy
Bits/(Pixel*Frame) : 0.306
Stream size : 1.03 GiB (88%)
Title : RARBG.COM – Reach.Me.2014.BRRip.XviD.MP3-RARBG
Writing library : Lavc56.12.101

Audio
ID : 1
Format : MPEG Audio
Format version : Version 1
Format profile : Layer 3
Mode : Joint stereo
Mode extension : MS Stereo
Codec ID : 55
Codec ID/Hint : MP3
Duration : 1h 32mn
Bit rate mode : Constant
Bit rate : 192 Kbps
Channel(s) : 2 channels
Sampling rate : 48.0 KHz
Compression mode : Lossy
Stream size : 127 MiB (11%)
Alignment : Aligned on interleaves
Interleave, duration : 24 ms (0.58 video frame)
Interleave, preload duration : 24 ms
Title : RARBG.COM – Reach.Me.2014.BRRip.XviD.MP3-RARBG

Download Reach Me (2014) BRRip XviD MP3-RARBG

Download Reach Me (2014) BRRip XviD MP3-RARBG

Download Reach Me (2014) BRRip XviD MP3-RARBG

24UPLOADING

Click Here to Download

Click Here to Download

UPLOADED.TO

Click Here to Download
Share with Your Friends
Written by HDC0OL