Share with Your Friends

Riddick (2013) CAM AAC x264-SSDD 575 MB


iMDB

Riddick (2013) CAM AAC x264-SSDD 575 MB

Plot & Synopsis

Betrayed by his own kind and left for dead on a desolate planet, Riddick fights for survival against alien predators and becomes more powerful and dangerous than ever before. Soon bounty hunters from throughout the galaxy descend on Riddick only to find themselves pawns in his greater scheme for revenge. With his enemies right where he wants them, Riddick unleashes a vicious attack of vengeance before returning to his home planet of Furya to save it from destruction

Movie Information

Genre: Action | Sci-Fi | Thriller
IMDB Rating: 7.3/10
Directed by: David Twohy
Starring: Vin Diesel, Karl Urban, Katee Sackhoff

Encoder Information

NOTES – Enjoy. Resized and adjusted colour, brightness, hue and sharpeness, its a cam what else is there to say.

General
Complete name : Riddick 2013 CAM AAC x264-SSDD.mp4
Format : MPEG-4
Format profile : Base Media
Codec ID : isom
File size : 576 MiB
Duration : 1h 51mn
Overall bit rate mode : Variable
Overall bit rate : 719 Kbps

Video
ID : 1
Format : AVC
Format/Info : Advanced Video Codec
Format profile : High@L4.1
Format settings, CABAC : Yes
Format settings, ReFrames : 4 frames
Codec ID : avc1
Codec ID/Info : Advanced Video Coding
Duration : 1h 51mn
Bit rate : 634 Kbps
Maximum bit rate : 4 500 Kbps
Width : 608 pixels
Height : 336 pixels
Display aspect ratio : 16:9
Frame rate mode : Constant
Frame rate : 29.970 fps
Color space : YUV
Chroma subsampling : 4:2:0
Bit depth : 8 bits
Scan type : Progressive
Bits/(Pixel*Frame) : 0.104
Stream size : 508 MiB (88%)

Audio
ID : 2
Format : AAC
Format/Info : Advanced Audio Codec
Format profile : LC
Codec ID : 40
Duration : 1h 51mn
Bit rate mode : Variable
Bit rate : 80.0 Kbps
Maximum bit rate : 83.5 Kbps
Channel(s) : 2 channels
Channel positions : Front: L R
Sampling rate : 48.0 KHz
Compression mode : Lossy
Delay relative to video : 67ms
Stream size : 64.1 MiB (11%)

ScreenShots

Riddick (2013) CAM AAC x264-SSDD 575 MB

Riddick (2013) CAM AAC x264-SSDD 575 MB

Riddick (2013) CAM AAC x264-SSDD 575 MB

Riddick (2013) CAM AAC x264-SSDD 575 MB

Riddick (2013) CAM AAC x264-SSDD 575 MB

UltraMegabit

Click Here to Download

JunoCloud

Click Here to Download

RapidGator

Click Here to Download

NiraFile

Click Here to Download

HulkFile

Click Here to Download

MegaFiles

Click Here to Download

HugeFiles

Click Here to Download

FileOM

Click Here to Download

uploadinc

Click Here to Download

SpeedShare

Click Here to Download

SizFile

Click Here to Download
Share with Your Friends
Written by skull_6682