Share with Your Friends

Riddick 2013 R6 WEBRiP XViD-BERRY 1.4GB
iMDB

Riddick 2013 R6 WEBRiP XViD-BERRY 1.4GB

Left for dead on a sun-scorched planet, Riddick finds himself up against an alien race of predators. Activating an emergency beacon alerts two ships: one carrying a new breed of mercenary, the other captained by a man from Riddick’s past.


Release Title: Riddick.2013.R6.WEBRiP.XViD-BERRY
Format : AVI
Format/Info : Audio Video Interleave
File size : 1.40 GiB
Duration : 1h 54mn
Overall bit rate : 1 742 Kbps
Writing application : VirtualDubMod 1.5.10.2 (build 2540/release)
Writing library : VirtualDubMod build 2540/release

Video
ID : 0
Format : MPEG-4 Visual
Format profile : Advanced Simple@L5
Format settings, BVOP : 2
Format settings, QPel : No
Format settings, GMC : No warppoints
Format settings, Matrix : Default (H.263)
Muxing mode : Packed bitstream
Codec ID : XVID
Codec ID/Hint : XviD
Duration : 1h 54mn
Bit rate : 1 602 Kbps
Width : 692 pixels
Height : 306 pixels
Display aspect ratio : 2.25:1
Frame rate : 29.970 fps
Color space : YUV
Chroma subsampling : 4:2:0
Bit depth : 8 bits
Scan type : Progressive
Compression mode : Lossy
Bits/(Pixel*Frame) : 0.252
Stream size : 1.28 GiB (92%)
Writing library : XviD 64

Audio
ID : 1
Format : MPEG Audio
Format version : Version 1
Format profile : Layer 3
Codec ID : 55
Codec ID/Hint : MP3
Duration : 1h 54mn
Bit rate mode : Constant
Bit rate : 128 Kbps
Channel(s) : 2 channels
Sampling rate : 44.1 KHz
Compression mode : Lossy
Stream size : 105 MiB (7%)
Alignment : Split accross interleaves
Interleave, duration : 33 ms (1.00 video frame)
Interleave, preload duration : 500 ms

Riddick 2013 R6 WEBRiP XViD-BERRY 1.4GB

Riddick 2013 R6 WEBRiP XViD-BERRY 1.4GB

RapidGator

Click Here to Download

Click Here to Download

Uploaded.to

Click Here to Download 

Click Here to Download

BillionUploads

Click Here to Download 

Click Here to Download

180Upload

Click Here to Download 

Click Here to Download

PutLocker

Click Here to Download 

Click Here to Download
Share with Your Friends
Written by DaaD