Share with Your Friends

Download Rio 2 2014 HDTS x264 AC3-MiLLENiUM 1.13GB
iMDB

Download Rio 2 2014 HDTS x264 AC3-MiLLENiUM 1.13GB

Plot

t’s a jungle out there for Blu, Jewel and their three kids after they’re hurtled Rio de Janeiro to the wilds of the Amazon. As Blu tries to fit in, he goes beak-to-beak with the vengeful Nigel, and meets the most fearsome adversary of all: his father-in-law.

Information

General
Complete name : Rio 2 2014 HDTS x264 AC3-MiLLENiUM.mkv
Format : Matroska
Format version : Version 2
File size : 1.13 GiB
Duration : 1h 32mn
Overall bit rate mode : Variable
Overall bit rate : 1 747 Kbps
Encoded date : UTC 2014-04-25 19:57:23
Writing application : mkvmerge v6.9.1 (‘Blue Panther’) 32bit built on Apr 18 2014 >>
18:15:44
Writing library : libebml v1.3.0 + libmatroska v1.4.1

Video
ID : 1
Format : AVC
Format/Info : Advanced Video Codec
Format profile : High@L4.1
Format settings, CABAC : Yes
Format settings, ReFrames : 3 frames
Codec ID : V_MPEG4/ISO/AVC
Duration : 1h 32mn
Bit rate mode : Variable
Bit rate : 1 520 Kbps
Maximum bit rate : 40.0 Mbps
Width : 720 pixels
Height : 304 pixels
Display aspect ratio : 2.35:1
Frame rate mode : Constant
Frame rate : 25.000 fps
Color space : YUV
Chroma subsampling : 4:2:0
Bit depth : 8 bits
Scan type : Progressive
Bits/(Pixel*Frame) : 0.278
Stream size : 1 005 MiB (87%)

Audio
ID : 2
Format : AC-3
Format/Info : Audio Coding 3
Mode extension : CM (complete main)
Format settings, Endianness : Big
Codec ID : A_AC3
Duration : 1h 32mn
Bit rate mode : Constant
Bit rate : 192 Kbps
Channel(s) : 2 channels
Channel positions : Front: L R
Sampling rate : 44.1 KHz
Bit depth : 16 bits
Compression mode : Lossy
Stream size : 127 MiB (11%)
Language : English
Default : Yes
Forced : No

Download Rio 2 2014 HDTS x264 AC3-MiLLENiUM 1.13GB

Download Rio 2 2014 HDTS x264 AC3-MiLLENiUM 1.13GB

Download Rio 2 2014 HDTS x264 AC3-MiLLENiUM 1.13GB

Download Rio 2 2014 HDTS x264 AC3-MiLLENiUM 1.13GB

Download Rio 2 2014 HDTS x264 AC3-MiLLENiUM 1.13GB

Download Rio 2 2014 HDTS x264 AC3-MiLLENiUM 1.13GB

Download Rio 2 2014 HDTS x264 AC3-MiLLENiUM 1.13GB

Download Rio 2 2014 HDTS x264 AC3-MiLLENiUM 1.13GB

MultiUpload

Click Here to Download

Click Here to Download


Click Here to Download

PutLocker (FireDrive)

Click Here to Download

Click Here to Download


Click Here to Download

Uploaded.to

Click Here to Download

Click Here to Download


Click Here to Download

RapidGator

Click Here to Download

Click Here to Download


Click Here to Download
Share with Your Friends
Written by ED12