Share with Your Friends

Download Title
iMDB

Download Roadside (2013) DVDRip 430MB

Plot

Dan Summers and his pregnant wife, Mindy, fight for their lives when they are held hostage in their car by an unseen gunman on the side of a desolate mountain road.

Information

Format : AVI
File size : 431 MiB
Duration : 1h 17mn

Video
Format : xvid
Duration : 1h 17mn
Bit rate : 632 Kbps
Width : 720 pixels
Height : 304 pixels
Frame rate : 25.000 fps
Stream size : 353 MiB (82%)

Audio
Format : MPEG Audio
Codec ID/Hint : MP3
Duration : 1h 17mn
Bit rate : 128 Kbps
Channel(s) : 2 channels
Stream size : 71.4 MiB (17%)

Download Title

Download Roadside (2013) DVDRip 430MB

24Uploading (Recommended)

Click Here to Download

ClicknUpload

Click Here to Download

UPLOADED

Click Here to Download

MEDiAFREE

Click Here to Download

Xfileload

Click Here to Download
Share with Your Friends
Written by S H E R i F