Share with Your Friends

Download Robot Revolution (2015) 480p WEB-DL 250MB
iMDB

Download Robot Revolution (2015) 480p WEB-DL 250MB

Plot

In a not-too-distant future where every aspect of society is controlled by machines, terrorism has forced the state to institute martial law. While performing a routine check in a high-rise apartment, a well-armed police officer and her android partner discover that something is causing the buildings’ residents to “malfunction,” forcing them to fight their way out. However, as they investigate the malfunction further, they uncover a secret that the government would do anything to cover up.

Information

General
Format : MPEG-4
Format profile : Base Media / Version 2
Codec ID : mp42
File size : 257 MiB
Duration : 1h 21mn
Overall bit rate mode : Variable
Overall bit rate : 438 Kbps

Video
ID : 1
Format : AVC
Format/Info : Advanced Video Codec
Format profile : Baseline@L2.1
Format settings, CABAC : No
Format settings, ReFrames : 1 frame
Format settings, GOP : M=1, N=60
Codec ID : avc1
Codec ID/Info : Advanced Video Coding
Duration : 1h 21mn
Bit rate : 340 Kbps
Maximum bit rate : 2 265 Kbps
Width : 576 pixels
Height : 324 pixels
Display aspect ratio : 16:9
Frame rate mode : Constant
Frame rate : 23.976 fps
Color space : YUV
Chroma subsampling : 4:2:0
Bit depth : 8 bits
Scan type : Progressive
Bits/(Pixel*Frame) : 0.076
Stream size : 199 MiB (78%)

Audio
ID : 2
Format : AAC
Format/Info : Advanced Audio Codec
Format profile : LC
Codec ID : 40
Duration : 1h 21mn
Bit rate mode : Variable
Bit rate : 96.0 Kbps
Maximum bit rate : 103 Kbps
Channel(s) : 2 channels
Channel positions : Front: L R
Sampling rate : 44.1 KHz
Compression mode : Lossy
Stream size : 56.2 MiB (22%)

Download Robot Revolution (2015) 480p WEB-DL 250MB

Download Robot Revolution (2015) 480p WEB-DL 250MB

Download Robot Revolution (2015) 480p WEB-DL 250MB

Download Robot Revolution (2015) 480p WEB-DL 250MB

Download Robot Revolution (2015) 480p WEB-DL 250MB

Download Robot Revolution (2015) 480p WEB-DL 250MB

24Uploading (Recommended)

Click Here to Download

HugeFile

Click Here to Download

TurboBit

Click Here to Download

Uploaded

Click Here to Download

RapidGator

Click Here to Download
Share with Your Friends
Written by ED12