Share with Your Friends

Download 
RUSH 2013 DVDRIP UPSCALED 720P 6CH AAC X264-SSDD 1.4 GB
iMDB

Information

Format : MPEG-4
Format profile : Base Media
Codec ID : isom
File size : 1.37 GiB
Duration : 2h 2mn
Overall bit rate mode : Variable
Overall bit rate : 1 602 Kbps

Video
ID : 1
Format : AVC
Format/Info : Advanced Video Codec
Format profile : High@L4.1
Format settings, CABAC : Yes
Format settings, ReFrames : 3 frames
Codec ID : avc1
Codec ID/Info : Advanced Video Coding
Duration : 2h 2mn
Bit rate mode : Variable
Bit rate : 1 400 Kbps
Maximum bit rate : 40.0 Mbps
Width : 1 280 pixels
Height : 720 pixels
Display aspect ratio : 16:9
Frame rate mode : Constant
Frame rate : 23.976 fps
Color space : YUV
Chroma subsampling : 4:2:0
Bit depth : 8 bits
Scan type : Progressive
Bits/(Pixel*Frame) : 0.063
Stream size : 1.20 GiB (87%)
Writing library : x264 core 140 r2377 1ca7bb9

Audio
ID : 2
Format : AAC
Format/Info : Advanced Audio Codec
Format profile : LC
Codec ID : 40
Duration : 2h 2mn
Bit rate mode : Variable
Bit rate : 200 Kbps
Maximum bit rate : 212 Kbps
Channel count : 6 channels
Channel positions : Front: L C R, Side: L R, LFE
Sampling rate : 48.0 KHz
Compression mode : Lossy
Stream size : 175 MiB (12%)

Download RUSH 2013 DVDRIP UPSCALED 720P 6CH AAC X264-SSDD 1.4 GB

Download
RUSH 2013 DVDRIP UPSCALED 720P 6CH AAC X264-SSDD 1.4 GB

Uploaded

Click Here to Download

Rapidgator

Click Here to Download

Ultramegabit

Click Here to Download

Kingfiles

Click Here to Download

Hugefiles

Click Here to Download

Putlocker

Click Here to Download

t

Share with Your Friends
Written by **Desire**