Share with Your Friends

Download Rush (2013) NEW CAM X264 MP3 MURDER
iMDB

Download Rush (2013) NEW CAM X264 MP3 MURDER

Plot

A re-creation of the merciless 1970s rivalry between Formula One rivals James Hunt and Niki Lauda.

Information

Format : AVI
Format/Info : Audio Video Interleave
File size : 1.21 GiB
Duration : 1h 52mn
Overall bit rate : 1 541 Kbps

Video
ID : 1
Format : AVC
Format/Info : Advanced Video Codec
Format profile : Main@L3.0
Format settings, CABAC : Yes
Format settings, ReFrames : 1 frame
Codec ID : X264
Codec ID/Info : XiWave GNU GPL x264 MPEG-4
Duration : 1h 52mn
Bit rate : 1 401 Kbps
Width : 720 pixels
Height : 400 pixels
Display aspect ratio : 16:9
Frame rate : 25.000 fps
Color space : YUV
Chroma subsampling : 4:2:0
Bit depth : 8 bits
Scan type : Progressive
Bits/(Pixel*Frame) : 0.195
Stream size : 1.10 GiB (91%)

Audio
ID : 0
Format : MPEG Audio
Format version : Version 1
Format profile : Layer 3
Mode : Joint stereo
Codec ID : 55
Codec ID/Hint : MP3
Duration : 1h 52mn
Bit rate mode : Constant
Bit rate : 128 Kbps
Channel count : 2 channels
Sampling rate : 44.1 KHz
Compression mode : Lossy
Stream size : 103 MiB (8%)
Alignment : Split accross interleaves
Interleave, duration : 40 ms (1.00 video frame)

Download Rush (2013) NEW CAM X264 MP3 MURDER

Download Rush (2013) NEW CAM X264 MP3 MURDER

Putlocker,Uploaded.to,RapidGator,180Upload,BillionUploads + 5 Hosts

Click Here to Download
Share with Your Friends
Written by master