Share with Your Friends

Download S.E.R.P (2013) BluRay 720p 700MB
iMDB

Download S.E.R.P (2013) BluRay 720p 700MB

When the search engine he designs answers “yes” to the question “is the government of the United States evil?”, a brilliant computer programmer is arrested and held in isolation. Desperate, but keenly aware of the answer’s potential effect on the public, the programmer strikes a deal with his interrogators, agreeing to re-design the software in exchange for his freedom. As they search to understand why the program answered an ethical question and try to find a way to change its response, the faith and patience of both the programmer and his captors are put to the test. Suspenseful and darkly comic, S.E.R.P. is a film about coercion, innovation, and whether it is possible to do something good in the service of something evil.

Information

General
Format : MPEG-4
Format profile : Base Media
File size : 703 MiB
Duration : 1h 30mn
Overall bit rate mode : Variable
Overall bit rate : 1 084 Kbps

Video
ID : 1
Format : AVC
Format/Info : Advanced Video Codec
Format profile : High L4.1
Format settings, CABAC : Yes
Format settings, ReFrames : 4 frames
Codec ID : avc1
Codec ID/Info : Advanced Video Coding
Duration : 1h 30mn
Bit rate : 986 Kbps
Maximum bit rate : 21.5 Mbps
Width : 1 280 pixels
Height : 720 pixels
Display aspect ratio : 16:9
Frame rate mode : Constant
Frame rate : 29.970 fps
Color space : YUV
Chroma subsampling : 4:2:0
Bit depth : 8 bits
Scan type : Progressive
Bits/(Pixel*Frame) : 0.036
Stream size : 639 MiB (91%)

Audio
ID : 2
Format : AAC
Format/Info : Advanced Audio Codec
Format profile : LC
Codec ID : 40
Duration : 1h 30mn
Bit rate mode : Variable
Bit rate : 93.4 Kbps
Maximum bit rate : 105 Kbps
Channel(s) : 2 channels
Channel positions : Front: L R
Sampling rate : 48.0 KHz
Compression mode : Lossy
Stream size : 60.5 MiB (9%)
Language : English

Download S.E.R.P (2013) BluRay 720p 700MB

Download S.E.R.P (2013) BluRay 720p 700MB

24Uploading (Recommended)

Click Here to Download

UptoBox

Click Here to Download

HugeFile

Click Here to Download

TurboBit

Click Here to Download

Uploaded

Click Here to Download

RapidGator

Click Here to Download
Share with Your Friends
Written by ED12