Share with Your Friends

Download Sabotage 2014 1080p WEB-DL DD5.1 H264-RARBG
iMDB

Download Sabotage 2014 1080p WEB-DL DD5.1 H264-RARBG

Plot

Members of an elite DEA task force find themselves being taken down one by one after they rob a drug cartel safe house.

Information

Video
ID : 1
Format : AVC
Format/Info : Advanced Video Codec
Format profile : High@L4.0
Format settings, CABAC : Yes
Format settings, ReFrames : 4 frames
Codec ID : V_MPEG4/ISO/AVC
Duration : 1h 49mn
Bit rate : 5 078 Kbps
Width : 1 916 pixels
Height : 1 036 pixels
Display aspect ratio : 1.85:1
Frame rate mode : Constant
Frame rate : 23.976 fps
Color space : YUV
Chroma subsampling : 4:2:0
Bit depth : 8 bits
Scan type : Progressive
Bits/(Pixel*Frame) : 0.107
Stream size : 3.89 GiB (91%)
Title : Sabotage.2014.1080p.WEB-DL.DD5.1.H264-RARBG
Language : English
Default : Yes
Forced : No
Color primaries : BT.709
Transfer characteristics : BT.709
Matrix coefficients : BT.709

Audio
ID : 2
Format : AC-3
Format/Info : Audio Coding 3
Mode extension : CM (complete main)
Format settings, Endianness : Big
Codec ID : A_AC3
Duration : 1h 49mn
Bit rate mode : Constant
Bit rate : 384 Kbps
Channel(s) : 6 channels
Channel positions : Front: L C R, Side: L R, LFE
Sampling rate : 48.0 KHz
Bit depth : 16 bits
Compression mode : Lossy
Stream size : 301 MiB (7%)
Title : Sabotage.2014.1080p.WEB-DL.DD5.1.H264-RARBG
Language : English
Default : Yes
Forced : No

Text
ID : 3
Format : UTF-8
Codec ID : S_TEXT/UTF8
Codec ID/Info : UTF-8 Plain Text
Language : English
Default : Yes
Forced : No

Download Sabotage 2014 1080p WEB-DL DD5.1 H264-RARBG

PutLocker (FireDrive)

Click Here to Download

Click Here to Download


Click Here to Download


Click Here to Download


Click Here to Download

TurboBit

Click Here to Download

Click Here to Download


Click Here to Download


Click Here to Download


Click Here to Download

Uploaded.to

Click Here to Download

Click Here to Download


Click Here to Download


Click Here to Download


Click Here to Download

RapidGator

Click Here to Download

Click Here to Download


Click Here to Download


Click Here to Download


Click Here to Download
Share with Your Friends
Written by ED12