Share with Your Friends

Download  Seventh Son (2014) HDCAM Audio Cleaned New Source - 700MB
iMDB

Download Seventh Son (2014) HDCAM Audio Cleaned New Source – 700MB

Information

Format : Matroska
Format version : Version 4 / Version 2
File size : 696 MiB
Duration : 1h 32mn
Overall bit rate mode : Variable
Overall bit rate : 1 056 Kbps
Movie name : Seventh Son 2015 English Movies HDCam x264 AAC Audio Cleaned New Source ~ rDX ~

Video
ID : 1
Format : MPEG-4 Visual
Format profile : Advanced Simple@L5
Format settings, BVOP : Yes
Format settings, QPel : No
Format settings, GMC : No warppoints
Format settings, Matrix : Default (H.263)
Codec ID : V_MS/VFW/FOURCC / XVID
Codec ID/Hint : XviD
Duration : 1h 32mn
Bit rate : 907 Kbps
Width : 720 pixels
Height : 304 pixels
Display aspect ratio : 2.35:1
Frame rate mode : Constant
Frame rate : 29.970 fps
Color space : YUV
Chroma subsampling : 4:2:0
Bit depth : 8 bits
Scan type : Progressive
Compression mode : Lossy
Bits/(Pixel*Frame) : 0.138
Stream size : 598 MiB (86%)
Title : ~ rDX ~
Writing library : XviD 64
Default : Yes
Forced : No

Audio
ID : 2
Format : MPEG Audio
Format version : Version 1
Format profile : Layer 3
Mode : Joint stereo
Mode extension : MS Stereo
Codec ID : A_MPEG/L3
Codec ID/Hint : MP3
Duration : 1h 34mn
Bit rate mode : Variable
Bit rate : 128 Kbps
Channel(s) : 2 channels
Sampling rate : 48.0 KHz
Compression mode : Lossy
Stream size : 86.3 MiB (12%)
Title : ~ rDX ~
Default : Yes
Forced : No

Download  Seventh Son (2014) HDCAM Audio Cleaned New Source - 700MB

Download  Seventh Son (2014) HDCAM Audio Cleaned New Source - 700MB

Download  Seventh Son (2014) HDCAM Audio Cleaned New Source - 700MB

Download Seventh Son (2014) HDCAM Audio Cleaned New Source – 700MB

24Up+UA+HF+CU+RG+UL+UR+UB

Click Here to Download
Share with Your Friends
Written by HDC0OL