Share with Your Friends

Download Seventh Son 2015 HC WEBRip XviD MP3-RARBG
iMDB

Download Seventh Son 2015 HC WEBRip XviD MP3-RARBG

Plot

Young Thomas is apprenticed to the local Spook to learn to fight evil spirits. His first great challenge comes when the powerful Mother Malkin escapes her confinement while the Spook is away.

Information

General
Format : AVI
Format/Info : Audio Video Interleave
File size : 1.29 GiB
Duration : 1h 42mn
Overall bit rate : 1 802 Kbps

Video
ID : 0
Format : MPEG-4 Visual
Format profile : Simple@L5
Format settings, BVOP : No
Format settings, QPel : No
Format settings, GMC : No warppoints
Format settings, Matrix : Default (H.263)
Codec ID : XVID
Codec ID/Hint : XviD
Duration : 1h 42mn
Bit rate : 1 598 Kbps
Width : 720 pixels
Height : 304 pixels
Display aspect ratio : 2.35:1
Frame rate : 24.000 fps
Color space : YUV
Chroma subsampling : 4:2:0
Bit depth : 8 bits
Scan type : Progressive
Compression mode : Lossy
Bits/(Pixel*Frame) : 0.304
Stream size : 1.14 GiB (89%)
Writing library : Lavc56.20.100

Audio
ID : 1
Format : MPEG Audio
Format version : Version 1
Format profile : Layer 3
Mode : Joint stereo
Mode extension : MS Stereo
Codec ID : 55
Codec ID/Hint : MP3
Duration : 1h 42mn
Bit rate mode : Constant
Bit rate : 192 Kbps
Channel(s) : 2 channels
Sampling rate : 44.1 KHz
Compression mode : Lossy
Stream size : 141 MiB (11%)
Alignment : Aligned on interleaves
Interleave, duration : 26 ms (0.63 video frame)
Interleave, preload duratio : 522 ms
Writing library : LAME3.99.5

Download Seventh Son 2015 HC WEBRip XviD MP3-RARBG

Download Seventh Son 2015 HC WEBRip XviD MP3-RARBG

Download Seventh Son 2015 HC WEBRip XviD MP3-RARBG

24Uploading Single Link

Click Here to Download

24Uploading (Recommended)

Click Here to Download

Click Here to Download


Click Here to Download

HugeFile

Click Here to Download

Click Here to Download


Click Here to Download

TurboBit

Click Here to Download

Click Here to Download


Click Here to Download

Uploaded

Click Here to Download

Click Here to Download


Click Here to Download

RapidGator

Click Here to Download

Click Here to Download


Click Here to Download
Share with Your Friends
Written by ED12