Share with Your Friends

Download Title
iMDB

Download Jungle Shuffle 2014 DVDRIP XVID AC3-ACAB

Plot

In this turbulent jungle adventure an outcast coati male has to team up with a quirky spider monkey to save a coati princess from the hands of a human poacher and his mysterious client.

Information

Format : AVI
File size : 968 MiB
Duration : 1h 18mn

Video
——
Codec ID : XVID
Bit rate : 1 339 Kbps
Width : 720 pixels
Height : 400 pixels
Frame rate : 25.000 fps
Stream size : 749 MiB (77%)

Audio
——
Format : AC-3
Bit rate : 384 Kbps
Channel(s) : 6 channels
Stream size : 215 MiB (22%)
Title : English

Download Title

Download Title

Download Title

Download Jungle Shuffle 2014 DVDRIP XVID AC3-ACAB

24Uploading (Recommended)

Click Here to Download

ClicknUpload

Click Here to Download

UPLOADED

Click Here to Download

MEDiAFREE

Click Here to Download

Xfileload

Click Here to Download

HUGEFiLES

Click Here to Download
Share with Your Friends
Written by S H E R i F