Share with Your Friends

Download Someone Marry Barry (2014) BluRay 720p 700MB - YIFY
iMDB

Download Someone Marry Barry (2014) BluRay 720p 700MB – YIFY

Plot

Three friends plot to get rid of their socially inappropriate friend by finding him a wife, but when he meets a woman just like him, their problems double.

Information

General
Format : MPEG-4
Format profile : Base Media
Codec ID : isom
File size : 696 MiB
Duration : 1h 27mn
Overall bit rate mode : Variable
Overall bit rate : 1 118 Kbps

Video
ID : 1
Format : AVC
Format/Info : Advanced Video Codec
Format profile : High@L4.1
Format settings, CABAC : Yes
Format settings, ReFrames : 4 frames
Codec ID : avc1
Codec ID/Info : Advanced Video Coding
Duration : 1h 27mn
Bit rate : 1 020 Kbps
Maximum bit rate : 5 945 Kbps
Width : 1 280 pixels
Height : 688 pixels
Display aspect ratio : 1.85:1
Frame rate mode : Constant
Frame rate : 23.976 fps
Color space : YUV
Chroma subsampling : 4:2:0
Bit depth : 8 bits
Scan type : Progressive
Bits/(Pixel*Frame) : 0.048
Stream size : 635 MiB (91%)
Color primaries : BT.709
Matrix coefficients : BT.709
Color range : Limited

Audio
ID : 2
Format : AAC
Format/Info : Advanced Audio Codec
Format profile : LC
Codec ID : 40
Duration : 1h 27mn
Bit rate mode : Variable
Bit rate : 93.8 Kbps
Maximum bit rate : 99.4 Kbps
Channel(s) : 2 channels
Channel positions : Front: L R
Sampling rate : 48.0 KHz
Compression mode : Lossy
Stream size : 58.4 MiB (8%)
Language : English

Download Someone Marry Barry (2014) BluRay 720p 700MB - YIFY

Download Someone Marry Barry (2014) BluRay 720p 700MB - YIFY

Download Someone Marry Barry (2014) BluRay 720p 700MB - YIFY

Download Someone Marry Barry (2014) BluRay 720p 700MB – YIFY

200MB Links

ZippyShare

Click Here to Download

Click Here to Download


Click Here to Download


Click Here to Download

Single Links

24Uploading (Recommended)

Click Here to Download

HugeFile

Click Here to Download

TurboBit

Click Here to Download

Uploaded

Click Here to Download

RapidGator

Click Here to Download
Share with Your Friends
Written by ED12