Share with Your Friends

Download Still 2014 720p WEB-DL DD5.1 H264-RARBG

iMDB

Download Still 2014 720p WEB-DL DD5.1 H264-RARBG

Plot

Set in North London, ‘Still’ is a gritty and atmospheric thriller about the violent disintegration of a man and father. Tom Carver (Aidan Gillen) is a man stumbling blindly towards a crossroad in his life, thrown out of focus by the death of his teenage son a year earlier. He becomes involved in a feud with a teenage gang after a seemingly harmless collision with a young kid. As the feud becomes more horrifying, Carver’s world starts to unravel forcing him to make decisions that will change his life forever.
Information

Video
ID : 1
Format : AVC
Format/Info : Advanced Video Codec
Format profile : Main L3.1
Format settings, CABAC : No
Format settings, ReFrames : 2 frames
Codec ID : V_MPEG4/ISO/AVC
Duration : 1h 43mn
Bit rate : 3 896 Kbps
Width : 1 280 pixels
Height : 544 pixels
Display aspect ratio : 2.35:1
Frame rate mode : Constant
Frame rate : 23.976 fps
Color space : YUV
Chroma subsampling : 4:2:0
Bit depth : 8 bits
Scan type : Progressive
Bits/(Pixel*Frame) : 0.233
Stream size : 2.81 GiB (89%)
Language : English
Default : Yes
Forced : No
Color primaries : BT.709
Transfer characteristics : BT.709
Matrix coefficients : BT.709
Color range : Limited

Audio
ID : 2
Format : AC-3
Format/Info : Audio Coding 3
Mode extension : CM (complete main)
Format settings, Endianness : Big
Codec ID : A_AC3
Duration : 1h 43mn
Bit rate mode : Constant
Bit rate : 384 Kbps
Channel(s) : 6 channels
Channel positions : Front: L C R, Side: L R, LFE
Sampling rate : 48.0 KHz
Bit depth : 16 bits
Compression mode : Lossy
Stream size : 283 MiB (9%)
Language : English
Default : Yes
Forced : No
Download Still 2014 720p WEB-DL DD5.1 H264-RARBG
Download Still 2014 720p WEB-DL DD5.1 H264-RARBG
Download Still 2014 720p WEB-DL DD5.1 H264-RARBG
Download Still 2014 720p WEB-DL DD5.1 H264-RARBG

UptoBox

Click Here to Download

Click Here to Download


Click Here to Download


Click Here to Download

HugeFile

Click Here to Download

Click Here to Download


Click Here to Download


Click Here to Download

Uploaded

Click Here to Download

Click Here to Download


Click Here to Download


Click Here to Download

RapidGator

Click Here to Download

Click Here to Download


Click Here to Download


Click Here to Download
Share with Your Friends
Written by ED12