Share with Your Friends

Download Teenage Mutant Ninja Turtles 2014 HDRip XviD MP3-RARBG
iMDB

Download Teenage Mutant Ninja Turtles 2014 HDRip XviD MP3-RARBG

Plot

When a kingpin threatens New York City, a news reporter find a quad of mutants which makes an alliance to unravel Shredder’s plan as the Teenage Mutant Ninja Turtles.

Information

General
Format : AVI
Format/Info : Audio Video Interleave
File size : 1.28 GiB
Duration : 1h 41mn
Overall bit rate : 1 800 Kbps
Writing library : VirtualDub build 35491/release

Video
ID : 0
Format : MPEG-4 Visual
Format profile : Simple@L5
Format settings, BVOP : No
Format settings, QPel : No
Format settings, GMC : No warppoints
Format settings, Matrix : Default (H.263)
Codec ID : XVID
Codec ID/Hint : XviD
Duration : 1h 41mn
Bit rate : 1 595 Kbps
Width : 720 pixels
Height : 304 pixels
Display aspect ratio : 2.35:1
Frame rate : 23.976 fps
Color space : YUV
Chroma subsampling : 4:2:0
Bit depth : 8 bits
Scan type : Progressive
Compression mode : Lossy
Bits/(Pixel*Frame) : 0.304
Stream size : 1.13 GiB (89%)
Writing library : Lavc56.1.100

Audio
ID : 1
Format : MPEG Audio
Format version : Version 1
Format profile : Layer 3
Mode : Joint stereo
Codec ID : 55
Codec ID/Hint : MP3
Duration : 1h 41mn
Bit rate mode : Constant
Bit rate : 192 Kbps
Channel(s) : 2 channels
Sampling rate : 48.0 KHz
Compression mode : Lossy
Stream size : 139 MiB (11%)
Alignment : Aligned on interleaves
Interleave, duration : 24 ms (0.58 video frame)
Interleave, preload duration : 504 ms
Writing library : LAME3.99.5

Download Teenage Mutant Ninja Turtles 2014 HDRip XviD MP3-RARBG

Download Teenage Mutant Ninja Turtles 2014 HDRip XviD MP3-RARBG

Download Teenage Mutant Ninja Turtles 2014 HDRip XviD MP3-RARBG

Download Teenage Mutant Ninja Turtles 2014 HDRip XviD MP3-RARBG

24Uploading (Recommended)

Click Here to Download

Click Here to Download


Click Here to Download
Share with Your Friends
Written by ED12