Share with Your Friends

Download Terror Trap (2010) BluRay 1080p 1.2GB – YIFY
iMDB

Download Terror Trap (2010) BluRay 1080p 1.2GB – YIFY

Plot

While driving at night on a lonely road, the car of estranged couple Don and Nancy is hit twice by another car in the middle of nowhere. Nancy asks for help and unpleasant sheriff Cleveland offers to take them to the nearby Motel Royal Vista and wait until the morning, when their car would be towed. When the couple arrives in the low-budget motel, they are attended by a weird receptionist. They are disturbed by noises and screams from inside the next room and Don asks them to keep quiet since his wife and he are tired and need to rest. But soon they realize that they are part of a sick and deadly game, and their lives are threatened.

Information

General
Format : MPEG-4
Format profile : Base Media
Codec ID : isom
File size : 1.24 GiB
Duration : 1h 20mn
Overall bit rate mode : Variable
Overall bit rate : 2 193 Kbps

Video
ID : 1
Format : AVC
Format/Info : Advanced Video Codec
Format profile : High@L4.1
Format settings, CABAC : Yes
Format settings, ReFrames : 4 frames
Codec ID : avc1
Codec ID/Info : Advanced Video Coding
Duration : 1h 20mn
Bit rate : 2 097 Kbps
Maximum bit rate : 40.7 Mbps
Width : 1 920 pixels
Height : 1 080 pixels
Display aspect ratio : 16:9
Frame rate mode : Constant
Frame rate : 23.976 fps
Color space : YUV
Chroma subsampling : 4:2:0
Bit depth : 8 bits
Scan type : Progressive
Bits/(Pixel*Frame) : 0.042
Stream size : 1.18 GiB (96%)

Audio
ID : 2
Format : AAC
Format/Info : Advanced Audio Codec
Format profile : LC
Codec ID : 40
Duration : 1h 20mn
Bit rate mode : Variable
Bit rate : 93.6 Kbps
Maximum bit rate : 108 Kbps
Channel(s) : 2 channels
Channel positions : Front: L R
Sampling rate : 48.0 KHz
Compression mode : Lossy
Stream size : 54.0 MiB (4%)
Language : English

Download Terror Trap (2010) BluRay 1080p 1.2GB – YIFY

Download Terror Trap (2010) BluRay 1080p 1.2GB – YIFY

200MB Links

ZippyShare

Click Here to Download

Click Here to Download


Click Here to Download


Click Here to Download


Click Here to Download


Click Here to Download


Click Here to Download

Single Links

24Uploading (Recommended)

Click Here to Download

HugeFile

Click Here to Download

TurboBit

Click Here to Download

Uploaded

Click Here to Download

RapidGator

Click Here to Download
Share with Your Friends
Written by ED12