Share with Your Friends

Download The Asylum 2015 HDRip XViD-ETRG

iMDB

Download The Asylum 2015 HDRip XViD-ETRG

Plot

From the director of Friday the 13th and The Texas Chainsaw Massacre and the producers of Paranormal Activity and Insidious comes new Horror. During an all-night, drug-fueled party at an abandoned asylum known for the horrific treatment of its patients, a group of ordinary teens decide to experiment with the occult, mysteriously leading to a violent possession. In an effort to find help, the group rushes to escape, only to find themselves locked inside with no means of communication. Tempers flare, trusts are broken and in attempt to save one of their friends possessed by the demon, the amateurs try to perform an exorcism. Instead of solving the problem, and unbeknownst to them, they unleash an even more powerful and vengeful spirit, one with a distinct motive and which wants them all dead. The teen’s only chance of survival is to uncover the asylum’s deep mysteries and find a way out before it’s too late. Their search for answers uncovers the asylum’s dark past and the terrible …
Information

General
Format : AVI
Format/Info : Audio Video Interleave
File size : 698 MiB
Duration : 1h 31mn
Overall bit rate : 1 065 Kbps

Video
ID : 0
Format : MPEG-4 Visual
Format profile : Advanced Simple L5
Format settings, BVOP : 2
Format settings, QPel : No
Format settings, GMC : No warppoints
Format settings, Matrix : Default (H.263)
Muxing mode : Packed bitstream
Codec ID : XVID
Codec ID/Hint : XviD
Duration : 1h 31mn
Bit rate : 928 Kbps
Width : 640 pixels
Height : 344 pixels
Display aspect ratio : 1.860
Frame rate : 23.976 fps
Color space : YUV
Chroma subsampling : 4:2:0
Bit depth : 8 bits
Scan type : Progressive
Compression mode : Lossy
Bits/(Pixel*Frame) : 0.176
Stream size : 608 MiB (87%)
Writing library : XviD 66

Audio
ID : 1
Format : MPEG Audio
Format version : Version 1
Format profile : Layer 3
Mode : Joint stereo
Mode extension : MS Stereo
Codec ID : 55
Codec ID/Hint : MP3
Duration : 1h 31mn
Bit rate mode : Constant
Bit rate : 128 Kbps
Channel(s) : 2 channels
Sampling rate : 48.0 KHz
Compression mode : Lossy
Stream size : 83.9 MiB (12%)
Alignment : Split accross interleaves
Interleave, duration : 42 ms (1.00 video frame)
Interleave, preload duration : 500 ms
Writing library : LAME3.99r
Encoding settings : -m j -V 4 -q 3 -lowpass 17 -b 128

Download The Asylum 2015 HDRip
Download The Asylum 2015 HDRip
Download The Asylum 2015 HDRip

Download The Asylum 2015 HDRip XViD-ETRG

UptoBox

Click Here to Download

HugeFile

Click Here to Download

Uploaded

Click Here to Download

RapidGator

Click Here to Download
Share with Your Friends
Written by ED12