Share with Your Friends

Download The Expendables 3 (2014) DVDSCR XviD-MAXSPEED
iMDB

Download The Expendables 3 (2014) DVDSCR XviD-MAXSPEED

Plot

Barney and his team, known as “The Expendables”, come into conflict with ruthless arms dealer Conrad Stonebanks, the Expendables’ co-founder, who is determined to destroy the team.

Information

General
Format : AVI
Format/Info : Audio Video Interleave
File size : 1.62 GiB
Duration : 2h 6mn
Overall bit rate : 1 832 Kbps

Video
ID : 0
Format : MPEG-4 Visual
Format profile : Advanced Simple@L5
Format settings, BVOP : 2
Format settings, QPel : Yes
Format settings, GMC : No warppoints
Format settings, Matrix : Default (H.263)
Muxing mode : Packed bitstream
Codec ID : XVID
Codec ID/Hint : XviD
Duration : 2h 6mn
Bit rate : 1 568 Kbps
Width : 720 pixels
Height : 304 pixels
Display aspect ratio : 2.35:1
Frame rate : 23.976 fps
Color space : YUV
Chroma subsampling : 4:2:0
Bit depth : 8 bits
Scan type : Progressive
Compression mode : Lossy
Bits/(Pixel*Frame) : 0.299
Stream size : 1.38 GiB (86%)
Writing library : XviD 64

Audio
ID : 1
Format : AC-3
Format/Info : Audio Coding 3
Mode extension : CM (complete main)
Format settings, Endianness : Big
Codec ID : 2000
Duration : 2h 6mn
Bit rate mode : Constant
Bit rate : 256 Kbps
Channel(s) : 2 channels
Channel positions : Front: L R
Sampling rate : 44.1 KHz
Bit depth : 16 bits
Compression mode : Lossy
Stream size : 231 MiB (14%)
Alignment : Aligned on interleaves
Interleave, duration : 70 ms (1.67 video frames)
Interleave, preload duration : 209 ms
Title : audio

Download The Expendables 3 (2014) DVDSCR XviD-MAXSPEED

Download The Expendables 3 (2014) DVDSCR XviD-MAXSPEED

Download The Expendables 3 (2014) DVDSCR XviD-MAXSPEED

Download The Expendables 3 (2014) DVDSCR XviD-MAXSPEED

HugeFile

Click Here to Download

Click Here to Download


Click Here to Download


Click Here to Download

180Upload

Click Here to Download

Click Here to Download


Click Here to Download


Click Here to Download

BillionUploads

Click Here to Download

Click Here to Download


Click Here to Download


Click Here to Download

Sockshare

Click Here to Download

Click Here to Download


Click Here to Download


Click Here to Download

PutLocker (FireDrive)

Click Here to Download

Click Here to Download


Click Here to Download


Click Here to Download

TurboBit

Click Here to Download

Click Here to Download


Click Here to Download


Click Here to Download

Uploaded.to

Click Here to Download

Click Here to Download


Click Here to Download


Click Here to Download

RapidGator

Click Here to Download

Click Here to Download


Click Here to Download


Click Here to Download
Share with Your Friends
Written by ED12