Share with Your Friends

Download The Expendables 3 2014 DVDScr XviD MP3-RBG
iMDB

Download The Expendables 3 2014 DVDScr XviD MP3-RBG

Plot

Barney (Stallone), Christmas (Statham) and the rest of the team comes face-to-face with Conrad Stonebanks (Gibson), who years ago co-founded The Expendables with Barney. Stonebanks subsequently became a ruthless arms trader and someone who Barney was forced to kill… or so he thought. Stonebanks, who eluded death once before, now is making it his mission to end The Expendables — but Barney has other plans. Barney decides that he has to fight old blood with new blood, and brings in a new era of Expendables team members, recruiting individuals who are younger, faster and more tech-savvy. The latest mission becomes a clash of classic old-school style versus high-tech expertise in the Expendables’ most personal battle yet.

Information

Format : AVI
Format/Info : Audio Video Interleave
Format profile : OpenDML
File size : 2.50 GiB
Duration : 2h 6mn
Overall bit rate : 2 838 Kbps
Movie name : RARBG.COM – The.Expendables.3.2014.DVDScr.LEAKED.CLEAN.Xv >>
D.MP3-RARBG
Writing library : VirtualDub build 35491/release
Comment : RARBG.COM – The.Expendables.3.2014.DVDScr.LEAKED.CLEAN.Xv >>
D.MP3-RARBG

Video
ID : 0
Format : MPEG-4 Visual
Format profile : Simple@L5
Format settings, BVOP : No
Format settings, QPel : No
Format settings, GMC : No warppoints
Format settings, Matrix : Default (H.263)
Codec ID : XVID
Codec ID/Hint : XviD
Duration : 2h 6mn
Bit rate : 2 567 Kbps
Width : 720 pixels
Height : 304 pixels
Display aspect ratio : 2.35:1
Frame rate : 23.976 fps
Color space : YUV
Chroma subsampling : 4:2:0
Bit depth : 8 bits
Scan type : Progressive
Compression mode : Lossy
Bits/(Pixel*Frame) : 0.489
Stream size : 2.26 GiB (90%)
Writing library : Lavc55.61.100

Audio
ID : 1
Format : MPEG Audio
Format version : Version 1
Format profile : Layer 3
Mode : Joint stereo
Codec ID : 55
Codec ID/Hint : MP3
Duration : 2h 6mn
Bit rate mode : Constant
Bit rate : 256 Kbps
Channel(s) : 2 channels
Sampling rate : 44.1 KHz
Compression mode : Lossy
Stream size : 231 MiB (9%)
Alignment : Aligned on interleaves
Interleave, duration : 26 ms (0.63 video frame)
Interleave, preload duration : 522 ms

Download The Expendables 3 2014 DVDScr XviD MP3-RBG

PutLocker (FireDrive)

Click Here to Download

fileom

Click Here to Download

Uploaded.to

Click Here to Download
Share with Your Friends
Written by ED12