Share with Your Friends

Download The Gamers Hands of Fate 2013 HDRip XviD AC3-MiLLENiUM
iMDB

Download The Gamers Hands of Fate 2013 HDRip XviD AC3-MiLLENiUM

Plot

When Cass (Brian Lewis) sets his eye on scoring a date with Natalie (Trin Miller), one of the world\’s top Romance of the Nine Empires players, she issues him a challenge: to show that he\’s gamer enough to win this year\’s national championship.

Information

General
Format : AVI
Format/Info : Audio Video Interleave
File size : 1.98 GiB
Duration : 2h 4mn
Overall bit rate : 2 269 Kbps
Writing application : VirtualDubMod 1.5.10.2 (build 2542/release)
Writing library : VirtualDub build 35491/release

Video
ID : 0
Format : MPEG-4 Visual
Format profile : Advanced Simple@L5
Format settings, BVOP : 2
Format settings, QPel : No
Format settings, GMC : No warppoints
Format settings, Matrix : Default (MPEG)
Codec ID : XVID
Codec ID/Hint : XviD
Duration : 2h 4mn
Bit rate : 2 036 Kbps
Width : 720 pixels
Height : 400 pixels
Display aspect ratio : 16:9
Frame rate : 23.976 fps
Color space : YUV
Chroma subsampling : 4:2:0
Bit depth : 8 bits
Scan type : Progressive
Compression mode : Lossy
Bits/(Pixel*Frame) : 0.295
Stream size : 1.78 GiB (90%)
Writing library : XviD 1.2.1 (UTC 2008-12-04)

Audio
ID : 1
Format : AC-3
Format/Info : Audio Coding 3
Mode extension : CM (complete main)
Format settings, Endianness : Big
Codec ID : 2000
Duration : 2h 4mn
Bit rate mode : Constant
Bit rate : 224 Kbps
Channel(s) : 2 channels
Channel positions : Front: L R
Sampling rate : 48.0 KHz
Bit depth : 16 bits
Compression mode : Lossy
Stream size : 200 MiB (10%)
Alignment : Split accross interleaves
Interleave, duration : 42 ms (1.00 video frame)
Interleave, preload duration : 500 ms

Download The Gamers Hands of Fate 2013 HDRip XviD AC3-MiLLENiUM

Download The Gamers Hands of Fate 2013 HDRip XviD AC3-MiLLENiUM

Download The Gamers Hands of Fate 2013 HDRip XviD AC3-MiLLENiUM

Download The Gamers Hands of Fate 2013 HDRip XviD AC3-MiLLENiUM

Download The Gamers Hands of Fate 2013 HDRip XviD AC3-MiLLENiUM

HugeFile

Click Here to Download

Click Here to Download


Click Here to Download


Click Here to Download


Click Here to Download

MultiUpload

Click Here to Download

Click Here to Download


Click Here to Download


Click Here to Download


Click Here to Download

180Upload

Click Here to Download

Click Here to Download


Click Here to Download


Click Here to Download


Click Here to Download

Sockshare

Click Here to Download

Click Here to Download


Click Here to Download


Click Here to Download


Click Here to Download

TurboBit

Click Here to Download

Click Here to Download


Click Here to Download


Click Here to Download


Click Here to Download

Uploaded.to

Click Here to Download

Click Here to Download


Click Here to Download


Click Here to Download


Click Here to Download

RapidGator

Click Here to Download

Click Here to Download


Click Here to Download


Click Here to Download


Click Here to Download
Share with Your Friends
Written by ED12