Share with Your Friends

The Glass House (2001) DVDRip 700MB
iMDB

The Glass House (2001) DVDRip 700MB

Plot
When Ruby Baker’s parents are killed in a car accident, she and her brother, Rhett, must travel to Malibu, to live with Terrence and Erin Glass, their former neighbors. At first, all seems well. Ruby is making new friends at school and Rhett is getting more video games and flashy toys than he’s ever had in his life. When Ruby speaks to her family’s estate lawyer, he tells her that her parents have left Rhett and her $4 million. Suddenly, Ruby begins to notice odd behavior from Terry and Erin.

Information
General
Complete name : The.Glass.House_DVDRip.2001.avi
Format : AVI
Format/Info : Audio Video Interleave
File size : 702 MiB
Duration : 1h 41mn
Overall bit rate : 963 Kbps
Writing application : VirtualDubMod 1.5.4.1 (build 2178/release)
Writing library : VirtualDubMod build 2178/release
Video
ID : 0
Format : MPEG-4 Visual
Format settings, BVOP : 1
Format settings, QPel : No
Format settings, GMC : No warppoints
Format settings, Matrix : Custom
Codec ID : XVID
Codec ID/Hint : XviD
Duration : 1h 41mn
Bit rate : 834 Kbps
Width : 640 pixels
Height : 272 pixels
Display aspect ratio : 2.35:1
Frame rate : 25.000 fps
Color space : YUV
Chroma subsampling : 4:2:0
Bit depth : 8 bits
Scan type : Progressive
Compression mode : Lossy
Bits/(Pixel*Frame) : 0.192
Stream size : 608 MiB (87%)
Writing library : XviD 1.2.0.dev47 (UTC 2006-11-01)
Audio
ID : 1
Format : MPEG Audio
Format version : Version 1
Format profile : Layer 3
Mode : Joint stereo
Mode extension : MS Stereo
Codec ID : 55
Codec ID/Hint : MP3
Duration : 1h 41mn
Bit rate mode : Variable
Bit rate : 116 Kbps
Nominal bit rate : 128 Kbps
Channel(s) : 2 channels
Sampling rate : 48.0 KHz
Compression mode : Lossy
Stream size : 84.4 MiB (12%)

The Glass House (2001) DVDRip 700MB

The Glass House (2001) DVDRip 700MB

The Glass House (2001) DVDRip 700MB

The Glass House (2001) DVDRip 700MB

The Glass House (2001) DVDRip 700MB

The Glass House (2001) DVDRip 700MB

UltraMegabit

Click Here to Download

RapidGator

Click Here to Download

HugeFiles

Click Here to Download

KingFiles

Click Here to Download

HulkFile

Click Here to Download

SpeedShare

Click Here to Download

PutLocker (FireDrive)

Click Here to Download

FileOM

Click Here to Download

MedoFire

Click Here to Download

FilesFrog

Click Here to Download
Share with Your Friends
Written by skull_6682