Share with Your Friends

Download The Hagstone Demon 2011 BluRay 1080p 1.4GB - YIFY
iMDB

Download The Hagstone Demon 2011 BluRay 1080p 1.4GB – YIFY

Douglas Elmore is an alcoholic writer and caretaker haunted by visions of his dead wife and pursued by supernatural forces bent on revenge for his past deeds. When tenants start turning up dead in the hallways and stairwells of his brownstone apartment building, Douglas suspects a strange but sexually alluring homeless prostitute named Karna who sleeps in his basement by day and prowls the empty city by night. But as the bodies pile up, Douglas is torn between his growing obsession with Karna and the threat of becoming a prime suspect in a murder investigation. Douglas must find the origin of the evil residing in the old Hagstone building before the secrets of his past return to destroy him.

Information

General
Format : MPEG-4
Format profile : Base Media
Codec ID : isom
File size : 1.44 GiB
Duration : 1h 35mn
Overall bit rate mode : Variable
Overall bit rate : 2 157 Kbps

Video
ID : 1
Format : AVC
Format/Info : Advanced Video Codec
Format profile : High L4.1
Format settings, CABAC : Yes
Format settings, ReFrames : 4 frames
Codec ID : avc1
Codec ID/Info : Advanced Video Coding
Duration : 1h 35mn
Bit rate : 2 060 Kbps
Maximum bit rate : 14.2 Mbps
Width : 1 920 pixels
Height : 1 080 pixels
Display aspect ratio : 16:9
Frame rate mode : Constant
Frame rate : 23.976 fps
Color space : YUV
Chroma subsampling : 4:2:0
Bit depth : 8 bits
Scan type : Progressive
Bits/(Pixel*Frame) : 0.041
Stream size : 1.38 GiB (95%)

Audio
ID : 2
Format : AAC
Format/Info : Advanced Audio Codec
Format profile : LC
Codec ID : 40
Duration : 1h 35mn
Bit rate mode : Variable
Bit rate : 93.7 Kbps
Maximum bit rate : 105 Kbps
Channel(s) : 2 channels
Channel positions : Front: L R
Sampling rate : 48.0 KHz
Compression mode : Lossy
Stream size : 64.2 MiB (4%)
Language : English

Download The Hagstone Demon 2011 BluRay 1080p 1.4GB - YIFY

Download The Hagstone Demon 2011 BluRay 1080p 1.4GB – YIFY

24Uploading (Recommended)

Click Here to Download

UptoBox

Click Here to Download

HugeFile

Click Here to Download

TurboBit

Click Here to Download

Uploaded

Click Here to Download

RapidGator

Click Here to Download
Share with Your Friends
Written by ED12