Share with Your Friends

Download The Hobbit 2014 Battle Of The Five Armies DVDScr XVID AC3 HQ Hive-CM8
iMDB

Download The Hobbit 2014 Battle Of The Five Armies DVDScr XVID AC3 HQ Hive-CM8

Plot

Bilbo and Company are forced to engage in a war against an array of combatants and keep the Lonely Mountain from falling into the hands of a rising darkness.

Information

General
Complete name : The.Hobbit.2014.Battle.Of.The.Five.Armies.DVDScr.XVID.AC3.HQ.Hive-CM8.avi
Format : AVI
Format/Info : Audio Video Interleave
Format profile : OpenDML
Format settings : rec
File size : 1.93 GiB
Duration : 2h 24mn
Overall bit rate : 1 910 Kbps
Writing application : AVI-Mux GUI 1.17.7, Aug 8 2006 20:59:17

Video
ID : 0
Format : MPEG-4 Visual
Format profile : Advanced Simple@L5
Format settings, BVOP : 2
Format settings, QPel : Yes
Format settings, GMC : No warppoints
Format settings, Matrix : Default (H.263)
Muxing mode : Packed bitstream
Codec ID : XVID
Codec ID/Hint : XviD
Duration : 2h 24mn
Bit rate : 1 680 Kbps
Width : 720 pixels
Height : 304 pixels
Display aspect ratio : 2.35:1
Frame rate : 29.970 fps
Color space : YUV
Chroma subsampling : 4:2:0
Bit depth : 8 bits
Scan type : Progressive
Compression mode : Lossy
Bits/(Pixel*Frame) : 0.256
Stream size : 1.69 GiB (88%)
Writing library : XviD 1.2.1 (UTC 2008-12-04)

Audio
ID : 1
Format : AC-3
Format/Info : Audio Coding 3
Mode extension : CM (complete main)
Format settings, Endianness : Big
Codec ID : 2000
Duration : 2h 24mn
Bit rate mode : Constant
Bit rate : 224 Kbps
Channel(s) : 2 channels
Channel positions : Front: L R
Sampling rate : 48.0 KHz
Bit depth : 16 bits
Compression mode : Lossy
Stream size : 231 MiB (12%)
Alignment : Aligned on interleaves
Interleave, duration : 64 ms (1.92 video frames)
Interleave, preload duration : 192 ms

Download The Hobbit 2014 Battle Of The Five Armies DVDScr XVID AC3 HQ Hive-CM8

Download The Hobbit 2014 Battle Of The Five Armies DVDScr XVID AC3 HQ Hive-CM8

Download The Hobbit 2014 Battle Of The Five Armies DVDScr XVID AC3 HQ Hive-CM8

Download The Hobbit 2014 Battle Of The Five Armies DVDScr XVID AC3 HQ Hive-CM8

Download The Hobbit 2014 Battle Of The Five Armies DVDScr XVID AC3 HQ Hive-CM8

24Uploading (Recommended)

Click Here to Download

Click Here to Download


Click Here to Download


Click Here to Download


Click Here to Download

HugeFile

Click Here to Download

Click Here to Download


Click Here to Download


Click Here to Download


Click Here to Download

TurboBit

Click Here to Download

Click Here to Download


Click Here to Download


Click Here to Download


Click Here to Download

Uploaded

Click Here to Download

Click Here to Download


Click Here to Download


Click Here to Download


Click Here to Download

RapidGator

Click Here to Download

Click Here to Download


Click Here to Download


Click Here to Download


Click Here to Download
Share with Your Friends
Written by ED12