Share with Your Friends

Download The Hobbit The Battle of the Five Armies (2014) HDRip XviD-MAXSPEED
iMDB

Download The Hobbit The Battle of the Five Armies (2014) HDRip XviD-MAXSPEED

Plot

Bilbo and Company are forced to engage in a war against an array of combatants and keep the Lonely Mountain from falling into the hands of a rising darkness.

Information

Format : AVI
Format/Info : Audio Video Interleave
Format profile : OpenDML
Format settings : rec
File size : 2.05 GiB
Duration : 2h 24mn
Overall bit rate : 2 029 Kbps

Video
ID : 0
Format : MPEG-4 Visual
Format profile : Advanced Simple@L5
Format settings, BVOP : 2
Format settings, QPel : No
Format settings, GMC : No warppoints
Format settings, Matrix : Default (MPEG)
Codec ID : XVID
Codec ID/Hint : XviD
Duration : 2h 24mn
Bit rate : 1 640 Kbps
Width : 720 pixels
Height : 304 pixels
Display aspect ratio : 2.35:1
Frame rate : 23.976 fps
Color space : YUV
Chroma subsampling : 4:2:0
Bit depth : 8 bits
Scan type : Progressive
Compression mode : Lossy
Bits/(Pixel*Frame) : 0.312
Stream size : 1.65 GiB (81%)
Writing library : XviD 1.2.1 (UTC 2008-12-04)

Audio
ID : 1
Format : AC-3
Format/Info : Audio Coding 3
Mode extension : CM (complete main)
Format settings, Endianness : Big
Codec ID : 2000
Duration : 2h 24mn
Bit rate mode : Constant
Bit rate : 384 Kbps
Channel(s) : 2 channels
Channel positions : Front: L R
Sampling rate : 48.0 KHz
Bit depth : 16 bits
Compression mode : Lossy
Stream size : 397 MiB (19%)
Alignment : Aligned on interleaves
Interleave, duration : 64 ms (1.53 video frames)
Interleave, preload duration : 192 ms

Download The Hobbit The Battle of the Five Armies (2014) HDRip XviD-MAXSPEED

Download The Hobbit The Battle of the Five Armies (2014) HDRip XviD-MAXSPEED

Download The Hobbit The Battle of the Five Armies (2014) HDRip XviD-MAXSPEED

Download The Hobbit The Battle of the Five Armies (2014) HDRip XviD-MAXSPEED

Download The Hobbit The Battle of the Five Armies (2014) HDRip XviD-MAXSPEED

24Uploading (Recommended)

Click Here to Download

Click Here to Download


Click Here to Download

HugeFile

Click Here to Download

Click Here to Download


Click Here to Download

TurboBit

Click Here to Download

Click Here to Download


Click Here to Download

Uploaded

Click Here to Download

Click Here to Download


Click Here to Download

RapidGator

Click Here to Download

Click Here to Download


Click Here to Download
Share with Your Friends
Written by ED12